Peter Serkin - Schubert - Piano Sonata No. 7 - Schumann - Waldszenen, Op. 82 (1967/2020) [Official Digital Download 24/192]

Posted By: pyatak
Peter Serkin - Schubert - Piano Sonata No. 7 - Schumann - Waldszenen, Op. 82 (1967/2020) [Official Digital Download 24/192]

Peter Serkin - Schubert- Piano Sonata No. 7 - Schumann- Waldszenen, Op. 82 (1967/2020) [Official Digital Download 24/192]
FLAC (tracks) 24-bit/192 kHz | Front Cover | Time - 54:44 minutes | 2,11 GB
Classical | Label: Sony Classical, Official Digital Download

In Memoriam of Grammy winning pianist Peter Serkin (1947–2020), a “brilliant instrumentalist, sensitive, original interpreter and performer of uncommon vitality” (Michael Steinberg)

“Thank you so much for your interest in my old recordings and for being so enterprising and bringing them out in a box set now. When I first heard about this project I thought that some of those recordings are not good enough […]. I have listened to [them] over the weekend, and I’ve had a change of heart about it. Even the ones I would not play that way now still may have redeeming aspects, and some of them I actually enjoyed quite a lot. …” – Peter Serkin Peter Serkin was closely involved in the preparation for this edition but sadly did not live to see its release. He died on February 1, 2020 at his home in Red Hook, N. Y.

TRACKLIST

Franz Schubert (1797 - 1828): Piano Sonata in E-Flat Major, D. 568:

1 Piano Sonata in E-Flat Major, D. 568: I. Allegro moderato
2 Piano Sonata in E-Flat Major, D. 568: II. Andante molto
3 Piano Sonata in E-Flat Major, D. 568: III. Menuett (Allegretto) - Trio
4 Piano Sonata in E-Flat Major, D. 568: IV. Allegro moderato

Robert Schumann (1810 - 1856): Waldszenen, Op. 82:

5 Waldszenen, Op. 82: I. Eintritt
6 Waldszenen, Op. 82: II. Jäger auf der Lauer
7 Waldszenen, Op. 82: III. Einsame Blumen
8 Waldszenen, Op. 82: IV. Verrufene Stelle
9 Waldszenen, Op. 82: V. Freundliche Landschaft
10 Waldszenen, Op. 82: VI. Herberge
11 Waldszenen, Op. 82: VII. Vogel als Prophet0
12 Waldszenen, Op. 82: VIII. Jagdlied
13 Waldszenen, Op. 82: IX. Abschied

foobar2000 1.3.16 / Dynamic Range Meter 1.1.1
log date: 2020-06-02 02:54:18

––––––––––––––––––––––––––––––––––––––––
Analyzed: Peter Serkin / Schubert: Piano Sonata No. 7 - Schumann: Waldszenen, Op. 82 (Remastered)
––––––––––––––––––––––––––––––––––––––––

DR Peak RMS Duration Track
––––––––––––––––––––––––––––––––––––––––
DR16 -0.32 dB -21.65 dB 8:06 01-Piano Sonata in E-Flat Major, D. 568: I. Allegro moderato
DR16 -0.32 dB -23.79 dB 6:36 02-Piano Sonata in E-Flat Major, D. 568: II. Andante molto
DR14 -7.16 dB -26.56 dB 5:13 03-Piano Sonata in E-Flat Major, D. 568: III. Menuett (Allegretto) - Trio
DR15 -0.33 dB -21.32 dB 8:14 04-Piano Sonata in E-Flat Major, D. 568: IV. Allegro moderato
DR13 -7.44 dB -25.46 dB 2:39 05-Waldszenen, Op. 82: I. Eintritt
DR10 -1.33 dB -14.82 dB 1:19 06-Waldszenen, Op. 82: II. Jäger auf der Lauer
DR12 -9.73 dB -26.99 dB 2:25 07-Waldszenen, Op. 82: III. Einsame Blumen
DR15 -2.24 dB -23.82 dB 4:37 08-Waldszenen, Op. 82: IV. Verrufene Stelle
DR11 -3.88 dB -19.02 dB 1:00 09-Waldszenen, Op. 82: V. Freundliche Landschaft
DR13 -2.96 dB -20.63 dB 2:44 10-Waldszenen, Op. 82: VI. Herberge
DR15 -5.58 dB -27.04 dB 4:35 11-Waldszenen, Op. 82: VII. Vogel als Prophet
DR8 -0.11 dB -12.24 dB 2:29 12-Waldszenen, Op. 82: VIII. Jagdlied
DR15 -2.85 dB -23.18 dB 4:52 13-Waldszenen, Op. 82: IX. Abschied
––––––––––––––––––––––––––––––––––––––––

Number of tracks: 13
Official DR value: DR14

Samplerate: 192000 Hz
Channels: 2
Bits per sample: 24
Bitrate: 5670 kbps
Codec: FLAC
================================================================================



Thanks to the Original customer.