Peter Tosh - Legalize It (1976/2015) [Official Digital Download 24/96]

Posted By: Pisulik
Peter Tosh - Legalize It (1976/2015) [Official Digital Download 24/96]

Peter Tosh - Legalize It (1976/2015)
FLAC (tracks) 24-bit/96 kHz | Time - 38:15 minutes | 748 MB
Studio Master, Official Digital Download | Artwork: Digital Booklet

After spending 12 years as a member of Bob Marley's Wailers, Peter Tosh was eager to break free from the shadow of the legendary frontman. In 1976, he released „Legalize It“, still one of the most significant albums in the history of reggae. The title track expresses one of Tosh's many political causes, justifying the legalization of marijuana as a remedy for various medical ailments. 'Burial' is one of several tracks that features the talents of the Wailers' stand-out lead guitarist, Al Anderson.

Tosh adds his own seasoning to the reggae pot as he incorporates keyboards in 'Whatcha Gonna Do' and synthesizers and sound effects on 'Igziabeher.' 'Ketchy Shuby,' a sing-along about fooling around, features the background vocal talents of Rita Marley, Bunny Wailer, and Judy Mowatt. Tosh's life ended too early, and „Legalize It“ is the strongest testament to his legacy. Take a listen, and share the spirit of his genius.


01. Legalize It
02. Burial
03. Whatcha Gonna Do
04. No Sympathy
05. Why Must I Cry
06. Igziabeher (Let Jah Be Praised)
07. Ketchy Shuby
08. Till Your Well Runs Dry
09. Brand New Second Hand


Peter Tosh - guitar, keyboards, vocals
Al Anderson - guitar
Robbie Shakespeare - bass
Sly Dunbar - drums
Tyrone 'Organ D' Downie - keyboards
Donald Kinsey - guitar
Robbie 'Ras' Lee - harmonica
Rita Marley - background vocals
Judy Mowatt - background vocals
Bunny Wailer - background vocals

foobar2000 1.3.7 / Dynamic Range Meter 1.1.1
log date: 2017-12-07 01:31:47

Analyzed: Peter Tosh / Legalize It

DR Peak RMS Duration Track
DR12 0.00 dB -14.38 dB 4:42 01-Legalize It
DR12 -0.08 dB -13.51 dB 3:57 02-Burial
DR12 -0.63 dB -14.07 dB 2:30 03-Whatcha Gonna Do
DR13 -0.09 dB -14.14 dB 4:38 04-No Sympathy
DR10 -0.15 dB -11.66 dB 3:14 05-Why Must I Cry
DR10 -0.74 dB -12.10 dB 4:40 06-Igziabeher (Let Jah Be Praised)
DR12 -0.05 dB -13.69 dB 5:02 07-Ketchy Shuby
DR11 -0.12 dB -12.76 dB 6:13 08-Till Your Well Runs Dry
DR13 -0.27 dB -15.39 dB 4:05 09-Brand New Second Hand

Number of tracks: 9
Official DR value: DR12

Samplerate: 96000 Hz
Channels: 2
Bits per sample: 24
Bitrate: 2670 kbps
Codec: FLAC

All thanks go to the original releaser