Tags
Language
Tags

Philharmonisches Orchester Bremerhaven & Marc Niemann - Emilie Mayer - Symphonies Nos. 6 & 3 (2022) [24/96]

Posted By: pyatak
Philharmonisches Orchester Bremerhaven & Marc Niemann - Emilie Mayer - Symphonies Nos. 6 & 3 (2022) [24/96]

Philharmonisches Orchester Bremerhaven & Marc Niemann - Emilie Mayer - Symphonies Nos. 6 & 3 (2022) [24/96]
FLAC (tracks) 24-bit/96 kHz | Front Cover | Time - 69:29 minutes | 1,16 GB
Classical | Studio Master, Official Digital Download

In the overdue rediscovery of Emilie Mayer, hardly any text can do without the predicate "female Beethoven", which had already been bestowed upon her by her contemporaries. On the one hand, this is very honorable, because Mayer is indeed considered the most successful female symphonist of the Romantic period. She did not settle for the "domestic" genres of lied, piano and chamber music, which were at best granted to female composers at the time, but took on the representative symphony. On the other hand, the promotional attribute shows that judgments are still made in gender-specific categories - but fortunately no longer in the 19th century thought patterns that also hindered Emilie Mayer's career. The "Neue Berliner Musikzeitung" still described her as a "rare phenomenon" and "exception" in 1878, because the "production" of orchestral works was, after all, the "domain of the male creative spirit". By then, Emilie Mayer had already presented eight symphonies. And in 1850, almost 30 years earlier, a reviewer in the same paper marveled: "Up to now, a woman's hand has at most conquered a song (. . .). What female forces, forces of the second order, are capable of - that is what Emilie Mayer has achieved and reproduced."

After her death in 1883, the composer, who remained unmarried and childless, quickly fell into oblivion. It was not until 2021 that Marc Niemann and the Bremerhaven Philharmonic Orchestra gave performances of Emilie Mayer's Symphonies Nos. 3 and 6, which are now available as a premiere recording. The 3rd symphony was probably played in a public concert for the first time in 170 years.

TRACKLIST

01. Philharmonisches Orchester Bremerhaven & Marc Niemann - Mayer: Symphony No. 6 in E Major: I. Adagio - Allegro con spirito
02. Philharmonisches Orchester Bremerhaven & Marc Niemann - Mayer: Symphony No. 6 in E Major: II. Marcia funebre. Andante maestoso
03. Philharmonisches Orchester Bremerhaven & Marc Niemann - Mayer: Symphony No. 6 in E Major: III. Scherzo
04. Philharmonisches Orchester Bremerhaven & Marc Niemann - Mayer: Symphony No. 6 in E Major: IV. Finale. Allegro
05. Philharmonisches Orchester Bremerhaven & Marc Niemann - Mayer: Symphony No. 3 in C Major "Military": I. Adagio - Allegro con brio
06. Philharmonisches Orchester Bremerhaven & Marc Niemann - Mayer: Symphony No. 3 in C Major "Military": II. Un poco adagio
07. Philharmonisches Orchester Bremerhaven & Marc Niemann - Mayer: Symphony No. 3 in C Major "Military": III. Scherzo. Allegro
08. Philharmonisches Orchester Bremerhaven & Marc Niemann - Mayer: Symphony No. 3 in C Major "Military": IV. Finale militair. Adagio - Allegro vivace

foobar2000 1.6.2 / Dynamic Range Meter 1.1.1
log date: 2022-06-29 23:33:55

––––––––––––––––––––––––––––––––––––––––
Analyzed: Philharmonisches Orchester Bremerhaven & Marc Niemann / Emilie Mayer: Symphonies Nos. 6 & 3
––––––––––––––––––––––––––––––––––––––––

DR Peak RMS Duration Track
––––––––––––––––––––––––––––––––––––––––
DR16 -0.35 dB -22.52 dB 14:24 01-Mayer: Symphony No. 6 in E Major: I. Adagio - Allegro con spirito
DR15 -2.89 dB -24.09 dB 10:05 02-Mayer: Symphony No. 6 in E Major: II. Marcia funebre. Andante maestoso
DR15 -1.43 dB -22.64 dB 7:17 03-Mayer: Symphony No. 6 in E Major: III. Scherzo
DR15 -0.19 dB -21.15 dB 6:38 04-Mayer: Symphony No. 6 in E Major: IV. Finale. Allegro
DR14 -2.91 dB -23.14 dB 10:17 05-Mayer: Symphony No. 3 in C Major "Military": I. Adagio - Allegro con brio
DR15 -2.77 dB -24.69 dB 6:52 06-Mayer: Symphony No. 3 in C Major "Military": II. Un poco adagio
DR13 -3.45 dB -22.79 dB 5:51 07-Mayer: Symphony No. 3 in C Major "Military": III. Scherzo. Allegro
DR14 -0.50 dB -20.69 dB 8:04 08-Mayer: Symphony No. 3 in C Major "Military": IV. Finale militair. Adagio - Allegro vivace
––––––––––––––––––––––––––––––––––––––––

Number of tracks: 8
Official DR value: DR15

Samplerate: 96000 Hz
Channels: 2
Bits per sample: 24
Bitrate: 2455 kbps
Codec: FLAC
================================================================================



Thanks to the Original customer.