Pink Floyd - Delicate Sound Of Thunder (2020) (Live, 2019 Remix) [Official Digital Download 24/96]

Posted By: pyatak
Pink Floyd - Delicate Sound Of Thunder (2020) (Live, 2019 Remix) [Official Digital Download 24/96]

Pink Floyd - Delicate Sound Of Thunder (2020) (Live, 2019 Remix) [Official Digital Download 24/96]
FLAC (tracks) 24-bit/96 kHz | Front Cover | Time - 02:20:18 minutes | 2,86 GB
Rock | Label: PLG UK Catalog, Official Digital Download

If the end of the 80's sounded the death knell for many sacred monsters at the top of their art a decade or even fifteen years ago, they were the synonym of a new birth for Pink Floyd. The band has already had two lives, one with and then without Syd Barrett. When in 1985, Roger Waters left the adventure, he tried at all costs to prevent his former Playmates from retaining the name of the formation for their future projects. After a long legal battle, Gilmour, Mason, and Wright won the right to continue using Pink Floyd's surname. In 1987, A Momentary Lapse of Reason was released, the first album of the post-Waters era. This was followed by a pharaonic tour that gave birth to the live Delicate Sound of Thunder the following year. A one-of-a-kind album in the band's history for several reasons. First because it is the first real official Floyd live (although Ummagumma released in 1969 included two records, a live and a studio). Then because it was a huge success at the time on two levels, thanks to its different audio and video formats, new proof that the group has long grasped the primordial role played by images to accompany its music (the film Live At Pompeii released sixteen years earlier is a perfect example). Finally because it is the first album to have been played in space thanks to Soviet cosmonauts having taken it with them aboard the Soyuz TM-7 shuttle towards the Space station Mir. Its remixed and especially completed reissue brings this live having made debate into a new era.

TRACKLIST

1. Shine On You Crazy Diamond (Pts. 1-5) [2019 Remix] [Live]
2. Signs Of Life (live)
3. Learning To Fly (live)
4. Yet Another Movie (live)
5. Round And Round (live)
6. A New Machine Pt. 1 (live)
7. Terminal Frost (live)
8. A New Machine Pt. 2 (live)
9. Sorrow (live)
10. The Dogs Of War (live)
11. On The Turning Away (live)
12. One Of These Days (live)
13. Time (live)
14. On The Run (live)
15. The Great Gig In The Sky (live)
16. Wish You Were Here (live)
17. Welcome To The Machine (live)
18. Us And Them (live)
19. Money (live)
20. Another Brick In The Wall Pt. 2 (live)
21. Comfortably Numb (live)
22. One Slip (live)
23. Run Like Hell (live)

foobar2000 1.6.2 / Dynamic Range Meter 1.1.1
log date: 2020-11-20 00:20:23

––––––––––––––––––––––––––––––––––––––––
Analyzed: Pink Floyd / Delicate Sound Of Thunder (2019 Remix) [Live]
––––––––––––––––––––––––––––––––––––––––

DR Peak RMS Duration Track
––––––––––––––––––––––––––––––––––––––––
DR10 -0.51 dB -13.33 dB 12:08 01-Shine On You Crazy Diamond (Pts. 1-5) (2019 Remix, Live)
DR11 -1.87 dB -19.35 dB 3:19 02-Signs Of Life (2019 Remix, Live)
DR10 -0.50 dB -12.19 dB 5:15 03-Learning To Fly (2019 Remix, Live)
DR9 -0.50 dB -10.94 dB 6:17 04-Yet Another Movie (2019 Remix, Live)
DR9 -0.67 dB -17.82 dB 0:35 05-Round And Round (2019 Remix, Live)
DR11 -2.81 dB -17.59 dB 1:35 06-A New Machine Pt. 1 (2019 Remix, Live)
DR12 -0.50 dB -14.59 dB 6:17 07-Terminal Frost (2019 Remix, Live)
DR10 -1.71 dB -16.56 dB 0:35 08-A New Machine Pt. 2 (2019 Remix, Live)
DR9 -0.50 dB -10.94 dB 10:25 09-Sorrow (2019 Remix, Live)
DR8 -0.50 dB -10.39 dB 8:02 10-The Dogs Of War (2019 Remix, Live)
DR9 -0.50 dB -11.74 dB 9:11 11-On The Turning Away (2019 Remix, Live)
DR9 -0.50 dB -11.44 dB 6:18 12-One Of These Days (2019 Remix, Live)
DR8 -0.50 dB -10.64 dB 5:18 13-Time (2019 Remix, Live)
DR7 -0.50 dB -12.08 dB 2:49 14-On The Run (2019 Remix, Live)
DR8 -0.50 dB -11.74 dB 4:51 15-The Great Gig In The Sky (2019 Remix, Live)
DR12 -0.50 dB -15.26 dB 4:38 16-Wish You Were Here (2019 Remix, Live)
DR10 -0.50 dB -13.16 dB 7:45 17-Welcome To The Machine (2019 Remix, Live)
DR9 -0.50 dB -13.49 dB 7:38 18-Us And Them (2019 Remix, Live)
DR9 -0.50 dB -11.41 dB 8:18 19-Money (2019 Remix, Live)
DR10 -0.50 dB -12.33 dB 5:26 20-Another Brick In The Wall Pt. 2 (2019 Remix, Live)
DR10 -0.50 dB -11.75 dB 9:54 21-Comfortably Numb (2019 Remix, Live)
DR9 -0.50 dB -10.99 dB 6:09 22-One Slip (2019 Remix, Live)
DR7 -0.50 dB -9.93 dB 7:43 23-Run Like Hell (2019 Remix, Live)
––––––––––––––––––––––––––––––––––––––––

Number of tracks: 23
Official DR value: DR9

Samplerate: 96000 Hz
Channels: 2
Bits per sample: 24
Bitrate: 2936 kbps
Codec: FLAC
================================================================================



Thanks to the Original customer.