Pink Floyd - Live at Knebworth 1990 (2021) [Official Digital Download]

Posted By: pyatak
Pink Floyd - Live at Knebworth 1990 (2021) [Official Digital Download]

Pink Floyd - Live at Knebworth 1990 (2021) [Official Digital Download]
FLAC (tracks) 24-bit/44.1 kHz | Front Cover | Time - 55:46 minutes | 672 MB
Rock | Label: Legacy, Official Digital Download

Pink Floyd Live at Knebworth 1990, a new package documenting the band's Silver Clef Award Winners show at England's Knebworth House, will be released on April 30.

The concert, previously unreleased until appearing on the 2019 Later Years box set, will debut as a stand-alone release digitally and on CD and double vinyl. Singer and guitarist David Gilmour remixed the audio with Andy Jackson, and the project features new artwork shot by Hipgnosis' Aubrey "Po" Powell and designed by Storm Studios' Peter Curzon.


Read More: Pink Floyd Announce 'Live at Knebworth 1990' Album | https://ultimateclassicrock.com/pink-floyd-live-at-knebworth-1990-album/?utm_source=tsmclip&utm_medium=referral

TRACKLIST

01. Pink Floyd - Shine On You Crazy Diamond (Parts 1-5)
02. Pink Floyd - The Great Gig In the Sky
03. Pink Floyd - Wish You Were Here
04. Pink Floyd - Sorrow
05. Pink Floyd - Money
06. Pink Floyd - Comfortably Numb
07. Pink Floyd - Run Like Hell

foobar2000 1.6.5 / Dynamic Range Meter 1.1.1
log date: 2021-04-29 17:27:35

––––––––––––––––––––––––––––––––––––––––
Analyzed: Pink Floyd / Live at Knebworth 1990
––––––––––––––––––––––––––––––––––––––––

DR Peak RMS Duration Track
––––––––––––––––––––––––––––––––––––––––
DR11 -0.20 dB -13.72 dB 11:06 01-Shine On You Crazy Diamond (Parts 1-5)
DR12 -0.20 dB -16.30 dB 5:05 02-The Great Gig In the Sky
DR12 -0.20 dB -15.44 dB 4:48 03-Wish You Were Here
DR10 -0.20 dB -11.60 dB 9:34 04-Sorrow
DR10 -0.20 dB -12.72 dB 10:11 05-Money
DR10 -0.20 dB -12.43 dB 7:47 06-Comfortably Numb
DR8 -0.20 dB -10.91 dB 7:15 07-Run Like Hell
––––––––––––––––––––––––––––––––––––––––

Number of tracks: 7
Official DR value: DR10

Samplerate: 44100 Hz
Channels: 2
Bits per sample: 24
Bitrate: 1684 kbps
Codec: FLAC
================================================================================



Thanks to the Original customer.