Leonore Piano Trio - Pixis: Piano Trios (2016) [Official Digital Download 24/96]

Posted By: SERTiL
Leonore Piano Trio - Pixis: Piano Trios (2016) [Official Digital Download 24/96]

Leonore Piano Trio - Pixis: Piano Trios (2016)
FLAC (tracks) 24-bit/96 kHz | Time - 64:50 minutes | 1.21 GB
Studio Master, Official Digital Download | Artwork: Digital Booklet

The Leonore Piano Trio revivifies three works by a figure already—and unfairly—consigned to the musical footnotes of history before he died, and yet whose music is bound to charm in such persuasive performances as these.

Tracklist:

Johann Peter Pixis (1788-1874)

01. Piano Trio No. 1 in E-Flat Major, Op. 75 "Grand Trio": I. Allegro con brio (13:10)
02. Piano Trio No. 1 in E-Flat Major, Op. 75 "Grand Trio": II. Andante con moto (05:30)
03. Piano Trio No. 1 in E-Flat Major, Op. 75 "Grand Trio": III. Finale al capriccio. Poco adagio – Presto (09:58)
04. Piano Trio No. 3 in B Minor, Op. 95: I. Allegro vivace (09:20)
05. Piano Trio No. 3 in B Minor, Op. 95: II. Andante con moto alla marcia (05:08)
06. Piano Trio No. 3 in B Minor, Op. 95: III. Scherzo. Vivace – Trio (04:57)
07. Piano Trio No. 3 in B Minor, Op. 95: IV. Finale alla mauresque. Allegro (05:38)
08. Trio concertant No. 1: I. Introduzione. Andante (02:34)
09. Trio concertant No. 1: II. Allegretto con variazioni – (05:32)
10. Trio concertant No. 1: III. Allegro (03:03)

Personnel:
Leonore Piano Trio:
Benjamin Nabarro, violin
Tim Horton, piano
Gemma Rosefield, cello

foobar2000 1.3.7 / Dynamic Range Meter 1.1.1
log date: 2018-01-07 15:05:21

––––––––––––––––––––––––––––––––––––––––
Analyzed: Leonore Piano Trio / Pixis: Piano Trios
––––––––––––––––––––––––––––––––––––––––

DR Peak RMS Duration Track
––––––––––––––––––––––––––––––––––––––––
DR13 -1.00 dB -18.14 dB 13:10 01-Pixis: Piano Trio No 1 in E flat major 'Grand Trio', Op 75 - 1: Allegro con brio
DR13 -1.20 dB -21.12 dB 5:30 02-Pixis: Piano Trio No 1 in E flat major 'Grand Trio', Op 75 - 2: Andante con moto
DR13 -1.00 dB -18.20 dB 9:58 03-Pixis: Piano Trio No 1 in E flat major 'Grand Trio', Op 75 - 3: Finale al capriccio: Poco adagio – Presto
DR14 -1.00 dB -18.73 dB 9:21 04-Pixis: Piano Trio No 3 in B minor, Op 95 - 1: Allegro vivace
DR12 -2.60 dB -20.02 dB 5:09 05-Pixis: Piano Trio No 3 in B minor, Op 95 - 2: Andante con moto alla marcia
DR14 -1.00 dB -18.47 dB 4:57 06-Pixis: Piano Trio No 3 in B minor, Op 95 - 3: Scherzo: Vivace – Trio
DR14 -1.00 dB -17.67 dB 5:39 07-Pixis: Piano Trio No 3 in B minor, Op 95 - 4: Finale alla Mauresque: Allegro
DR12 -1.23 dB -18.29 dB 2:34 08-Pixis: Trio Concertant No 1 - 1: Introduzione: Andante
DR14 -1.00 dB -19.52 dB 5:33 09-Pixis: Trio Concertant No 1 - 2: Allegretto con variazioni –
DR14 -1.00 dB -18.43 dB 3:04 10-Pixis: Trio Concertant No 1 - 3: Allegro
––––––––––––––––––––––––––––––––––––––––

Number of tracks: 10
Official DR value: DR13

Samplerate: 96000 Hz
Channels: 2
Bits per sample: 24
Bitrate: 2682 kbps
Codec: FLAC
================================================================================


Thanks to the Original customer.