Plácido Domingo - Amore Infinito (2008/2014) [Official Digital Download]

Posted By: SERTiL
Plácido Domingo - Amore Infinito (2008/2014) [Official Digital Download]

Plácido Domingo - Amore Infinito (2008/2014)
FLAC (tracks) 24-bit/44.1 kHz | Time - 48:49 minutes | 534 MB
Studio Master, Official Digital Download | Artwork: Digital Booklet

This is a 'Sony Classical' re-issue to mark the canonization of Pope John Paul II on April 27. To honor him, Plácido Domingo will perform repertoire from this album at the ceremony in Poznan, Poland.

It includes songs inspired by the Poems of John Paul II - Karol Wojtyła. Featuring guest artists Josh Groban, Katherine Jenkins, Andrea Bocelli and Vanessa Williams. 'These songs have enormous significance for me … They will speak not only to religious people but to anyone who respects that uniquely great man, John Paul II, who chose to dedicate his life to the service of humanity and of God.'

Plácido Domingo - one of the most beloved spiritual leaders of the modern era, Pope John Paul II was not only a humanitarian and theologian, but an artist and author. In his pre-Papal life as Karol Wojtyła he wrote plays, essays, and, most notably, poetry. For this CD, Plácido Domingo and his son Plácido Domingo Jr. used a selection of not only religious poetry, but also poems about love and people’s daily life.

Tracklist:
01. La coscienza
02. La tua semplicità
03. Risuona anima mia
04. A Mother's Wonderment
05. Anima nell'anima
06. Canto del sole inesauribile
07. Palabras
08. Love
09. Amore glorificato
10. Gratitude
11. La libertà
12. Madre

foobar2000 1.3.7 / Dynamic Range Meter 1.1.1
log date: 2018-02-12 22:09:20

––––––––––––––––––––––––––––––––––––––––
Analyzed: Plácido Domingo / Amore Infinito - Songs Inspired by the Poems of John Paul II - Karol Wojtyla
––––––––––––––––––––––––––––––––––––––––

DR Peak RMS Duration Track
––––––––––––––––––––––––––––––––––––––––
DR6 -1.36 dB -11.31 dB 3:25 01-La coscienza
DR6 -0.85 dB -10.30 dB 3:46 02-La tua semplicità
DR7 -0.85 dB -11.38 dB 3:38 03-Risuona anima mia
DR7 -0.85 dB -10.67 dB 4:33 04-A Mother's Wonderment
DR7 -0.85 dB -12.20 dB 3:41 05-Anima nell'anima
DR7 -0.85 dB -9.96 dB 4:05 06-Canto del sole inesauribile
DR7 -0.85 dB -11.91 dB 3:47 07-Palabras
DR6 -0.85 dB -10.14 dB 4:32 08-Love
DR7 -0.85 dB -11.52 dB 3:38 09-Amore glorificato
DR5 -1.59 dB -10.02 dB 4:31 10-Gratitude
DR5 -1.35 dB -9.89 dB 5:16 11-La libertà
DR6 -0.85 dB -10.16 dB 4:05 12-Madre
––––––––––––––––––––––––––––––––––––––––

Number of tracks: 12
Official DR value: DR6

Samplerate: 44100 Hz
Channels: 2
Bits per sample: 24
Bitrate: 1479 kbps
Codec: FLAC
================================================================================


Thanks to the Original customer.