Prins Thomas - Ambitions (2019) [Official Digital Download]

Posted By: SERTiL
Prins Thomas - Ambitions (2019) [Official Digital Download]

Prins Thomas - Ambitions (2019)
FLAC (tracks) 24-bit/44.1 kHz | Time - 50:15 minutes | 528 MB
Studio Master, Official Digital Download | Artwork: Front Cover

Ambitions is Prins Thomas’ 6th album and his second solo album for Smalltown Supersound (plus two duo albums with Bjørn Torske and Bugge Wesseltoft). Ambitions (out April 5th) picks up from were he left off with Principe Del Norte. Still ambitious, but the tracks are shorter, more melodic and more concise. Prins Thomas also offers up his first vocal track, lead single "Feel A Love." Or to be precise, it's based around a sample of the track "Feel A Love" by one of the biggest pop-stars in Norway in the 70s and 80s, the late Alex (Naumik).

”The sun rises, the sun sets. This collection of new songs wasn't intended as an album at first. It gathers up loose ideas sketched down on my computer or hummed into my handheld recorder in the last 2 years with a shifting work environment, from hotel rooms in San Francisco, backstage in Osaka, on a plane from Miami to Chicago, my garden patio, and finally my B15 Studios in Asker.

The common thread was found later during overdubbing and reworking these sketches under the critical ears of label boss Joakim Haugland. Most of the tracks were finalized in the studio at the same time as my previous collaborative album with Bugge Wesseltoft. Bugge even kindly joins in on the album's closing track "Sakral".

Ambitions is my 6th album and I would like to thank the following people for their direct inspiration: Jon Christensen, Jaki Liebezeit, Haroumi Hosono, Daniel Lanois, Eberhard Weber, Shinichi Atobe and Ricardo Villalobos." - Prins Thomas, February 2019

Tracklist:
1. Foreplay (03:27)
2. XSB (05:31)
3. Feel the Love (04:25)
4. Ambitions (12:08)
5. Fra Miami til Chicago (10:44)
6. Urmannen (06:25)
7. Sakral (07:35)

foobar2000 1.3.7 / Dynamic Range Meter 1.1.1
log date: 2019-04-23 18:36:03

––––––––––––––––––––––––––––––––––––––––
Analyzed: Prins Thomas / Ambitions
––––––––––––––––––––––––––––––––––––––––

DR Peak RMS Duration Track
––––––––––––––––––––––––––––––––––––––––
DR7 -0.79 dB -10.46 dB 3:28 01-Foreplay
DR8 -0.73 dB -10.29 dB 5:32 02-XSB
DR7 -0.11 dB -10.48 dB 4:25 03-Feel The Love
DR6 -0.01 dB -8.61 dB 12:08 04-Ambitions
DR5 -0.69 dB -8.25 dB 10:44 05-Fra Miami Til Chicago
DR6 -0.76 dB -8.98 dB 6:26 06-Urmannen
DR6 -0.76 dB -8.70 dB 7:35 07-Sakral
––––––––––––––––––––––––––––––––––––––––

Number of tracks: 7
Official DR value: DR7

Samplerate: 44100 Hz
Channels: 2
Bits per sample: 24
Bitrate: 1438 kbps
Codec: FLAC
================================================================================


Thanks to the Original customer.