Pucho And The Latin Soul Brothers - Heat! (1968/2021) [Official Digital Download 24/192]

Posted By: pyatak
Pucho And The Latin Soul Brothers - Heat! (1968/2021) [Official Digital Download 24/192]

Pucho And The Latin Soul Brothers - Heat! (1968/2021) [Official Digital Download 24/192]
FLAC (tracks) 24-bit/192 kHz | Front Cover | Time - 40:29 minutes | 1,57 GB
Latin Jazz, Soul | Label: Craft Recordings, Official Digital Download

Pucho & His Latin Soul Brothers was a Latin jazz, soul jazz and R&B group formed in 1959 by timbales player Henry "Pucho" Brown. Of the many musicians that worked in his group, Chick Corea is among them. In 1973 he disbanded the group and focused more on traditional Latin music.

In the 1990s, his music received interest from the British Acid Jazz scene, and the re-formed Latin Soul Brothers perform today.

TRACKLIST

01. Pucho And The Latin Soul Brothers - Heat!
02. Pucho And The Latin Soul Brothers - Georgia On My Mind
03. Pucho And The Latin Soul Brothers - The Presence Of Your Heart
04. Pucho And The Latin Soul Brothers - Psychedelic Pucho
05. Pucho And The Latin Soul Brothers - I Can’t Stop Loving You
06. Pucho And The Latin Soul Brothers - Wanderin’ Rose
07. Pucho And The Latin Soul Brothers - Let Love Find You
08. Pucho And The Latin Soul Brothers - Candied Yam
09. Pucho And The Latin Soul Brothers - Payin’ Dues

foobar2000 1.6.2 / Dynamic Range Meter 1.1.1
log date: 2021-06-12 12:53:41

––––––––––––––––––––––––––––––––––––––––
Analyzed: Pucho And The Latin Soul Brothers / Heat!
––––––––––––––––––––––––––––––––––––––––

DR Peak RMS Duration Track
––––––––––––––––––––––––––––––––––––––––
DR8 -0.50 dB -10.33 dB 4:41 01-Heat!
DR8 -0.50 dB -9.47 dB 3:49 02-Georgia On My Mind
DR8 -0.50 dB -11.86 dB 4:03 03-The Presence Of Your Heart
DR9 -0.50 dB -10.88 dB 6:54 04-Psychedelic Pucho
DR9 -0.50 dB -10.82 dB 3:32 05-I Can’t Stop Loving You
DR10 -0.50 dB -12.56 dB 7:50 06-Wanderin’ Rose
DR9 -0.50 dB -10.48 dB 3:15 07-Let Love Find You
DR9 -0.50 dB -11.44 dB 3:28 08-Candied Yam
DR9 -0.50 dB -11.00 dB 2:56 09-Payin’ Dues
––––––––––––––––––––––––––––––––––––––––

Number of tracks: 9
Official DR value: DR9

Samplerate: 192000 Hz
Channels: 2
Bits per sample: 24
Bitrate: 5377 kbps
Codec: FLAC
================================================================================



Thanks to the Original customer.