Subcategories

Les Talens Lyriques & Christophe Rousset - Rameau: Pygmalion & Les Fêtes de Polymnie (2017) [Official Digital Download 24/96]

Posted By: SERTiL
Les Talens Lyriques & Christophe Rousset - Rameau: Pygmalion & Les Fêtes de Polymnie (2017) [Official Digital Download 24/96]

Les Talens Lyriques & Christophe Rousset - Rameau: Pygmalion & Les Fêtes de Polymnie (2017)
FLAC (tracks) 24-bit/96 kHz | Time - 71:46 minutes | 1.24 GB
Studio Master, Official Digital Download | Artwork: Digital booklet

Rameau's 'acte de ballet' 'Pygmalion', was the composer's first work to bear that designation. The term denotes a one-act opera with the usual solo numbers, duets, and choruses, interspersed with dance episodes and is generally more pageant-like than plot-driven! The opera was performed 30 times in 1748 and was revived to rapturous acclaim three years later.

The story of Pygmalion dates back to Greek and Roman mythology: the sculptor of the title forswears marriage, but then falls in love with his own perfect representation of a woman, beseeching Aphrodite (or Venus) to bring her to life. In Rameau's hands, the story became a sunny romantic comedy and one of his best-loved works. Like Ovid's Love, Christophe Rousset gives life to this score and leads a new and essential reading.

TRACKLIST

Jean-Philippe Rameau (1683 - 1764)

01. Pygmalion, acte de ballet, RCT 52: Ouverture
02. Pygmalion, acte de ballet, RCT 52, Scène 1: Air «Fatal Amour, cruel vainqueur» (Pygmalion)
03. Pygmalion, acte de ballet, RCT 52, Scène 2: Récit «Pygmalion, est-il possible» (Pygmalion, Céphis)
04. Pygmalion, acte de ballet, RCT 52, Scène 3: Récit «Que d'appas ! Que d'attraits !» (Pygmalion, la Statue)
05. Pygmalion, acte de ballet, RCT 52, Scène 3: Récit «D'où naissent ces accords ?»
06. Pygmalion, acte de ballet, RCT 52, Scène 3: Récit «Quel prodige ? Quel dieu ?»
07. Pygmalion, acte de ballet, RCT 52, Scène 3: Air «De mes maux à jamais»
08. Pygmalion, acte de ballet, RCT 52, Scène 4: Récit «Du pouvoir de l'Amour» (L'Amour, Pygmalion & la Statue)
09. Pygmalion, acte de ballet, RCT 52, Scène 4: «Jeux et ris qui suivez mes traces» ariette vive et gracieuse
10. Pygmalion, acte de ballet, RCT 52, Scène 4: Les différents caractères de la danse
11. Pygmalion, acte de ballet, RCT 52, Scène 4: Sarabande pour la Statue
12. Pygmalion, acte de ballet, RCT 52, Scène 4: Récit «Le peuple en ces lieux s'avance»
13. Pygmalion, acte de ballet, RCT 52, Scène 5: "Air gay pour l'entrée du peuple qui vient admirer la Statue" (Pygmalion, la Statue & chœurs)
14. Pygmalion, acte de ballet, RCT 52, Scène 5: Gavottes
15. Pygmalion, acte de ballet, RCT 52, Scène 5: «L'Amour triomphe» (ariette)
16. Pygmalion, acte de ballet, RCT 52, Scène 5: Pantomime niaise et un peu lente
17. Pygmalion, acte de ballet, RCT 52, Scène 5: Pantomime très vive
18. Pygmalion, acte de ballet, RCT 52, Scène 5: «Règne, Amour» (ariette)
19. Pygmalion, acte de ballet, RCT 52, Scène 5: Air gracieux
20. Pygmalion, acte de ballet, RCT 52, Scène 5: Contredanse
21. Les Fêtes de Polymnie, suite d'orchestre, RCT 39: I. Ouverture
22. Les Fêtes de Polymnie, suite d'orchestre, RCT 39: II. Air grave et fier
23. Les Fêtes de Polymnie, suite d'orchestre, RCT 39: III. Mouvement de Chaconne
24. Les Fêtes de Polymnie, suite d'orchestre, RCT 39: IV. Air grave et majestueux
25. Les Fêtes de Polymnie, suite d'orchestre, RCT 39: V. Premier et second Menuets
26. Les Fêtes de Polymnie, suite d'orchestre, RCT 39: VI. Premier et second Passepieds
27. Les Fêtes de Polymnie, suite d'orchestre, RCT 39: VII. Entrée des Peuples
28. Les Fêtes De Polymnie, Suite D'Orchestre, Rct 39: VIII. Gigue
29. Les Fêtes de Polymnie, suite d'orchestre, RCT 39: IX. Air vif
30. Les Fêtes de Polymnie, suite d'orchestre, RCT 39: X. Air fort gai

PERSONNEL
Les Talens Lyriques
Christophe Rousset, conductor

foobar2000 1.3.7 / Dynamic Range Meter 1.1.1
log date: 2017-09-11 20:03:14

––––––––––––––––––––––––––––––––––––––––
Analyzed: Christophe Rousset and Les Talens Lyriques / Rameau: Pygmalion & Les Fêtes de Polymnie (1-18)
Christophe Rousset, Céline Scheen, Cyrille Dubois and Les Talens Lyriques / Rameau: Pygmalion & Les Fêtes de Polymnie (19)
Christophe Rousset, Chœur Arnold Schoenberg and Les Talens Lyriques / Rameau: Pygmalion & Les Fêtes de Polymnie (20)
Christophe Rousset, Cyrille Dubois and Les Talens Lyriques / Rameau: Pygmalion & Les Fêtes de Polymnie (21-23)
Christophe Rousset, Cyrille Dubois, Les Talens Lyriques and Céline Scheen / Rameau: Pygmalion & Les Fêtes de Polymnie (24)
Christophe Rousset, Cyrille Dubois, Les Talens Lyriques and Chœur Arnold Schoenberg / Rameau: Pygmalion & Les Fêtes de Polymnie (25)
Christophe Rousset, Les Talens Lyriques and Cyrille Dubois / Rameau: Pygmalion & Les Fêtes de Polymnie (26-27)
Christophe Rousset, Les Talens Lyriques and Eugénie Warnier / Rameau: Pygmalion & Les Fêtes de Polymnie (28-29)
Christophe Rousset, Marie-ClauChappuis, Cyrille Dubois and Les Talens Lyriques / Rameau: Pygmalion & Les Fêtes de Polymnie (30)
––––––––––––––––––––––––––––––––––––––––

DR Peak RMS Duration Track
––––––––––––––––––––––––––––––––––––––––
DR13 -4.17 dB -22.94 dB 4:23 01-Pygmalion, acte de ballet, RCT 52: Ouverture
DR18 -0.30 dB -23.09 dB 2:46 10-Pygmalion, acte de ballet, RCT 52, Scène 4: Les différents caractères de la danse
DR14 -4.85 dB -24.51 dB 4:05 11-Pygmalion, acte de ballet, RCT 52, Scène 4: Sarabande pour la Statue
DR12 -14.39 dB -29.40 dB 1:47 14-Pygmalion, acte de ballet, RCT 52, Scène 5: Gavottes
DR14 -0.30 dB -18.74 dB 2:50 15-Pygmalion, acte de ballet, RCT 52, Scène 5: «L'Amour triomphe» (ariette)
DR13 -6.90 dB -24.15 dB 2:31 17-Pygmalion, acte de ballet, RCT 52, Scène 5: Pantomime très vive
DR11 -16.42 dB -31.20 dB 0:58 19-Pygmalion, acte de ballet, RCT 52, Scène 5: Air gracieux
DR12 -5.45 dB -21.41 dB 1:37 20-Pygmalion, acte de ballet, RCT 52, Scène 5: Contredanse
DR15 -0.30 dB -19.51 dB 4:32 21-Les Fêtes de Polymnie, suite d'orchestre, RCT 39: I. Ouverture
DR13 -8.83 dB -25.49 dB 2:29 22-Les Fêtes de Polymnie, suite d'orchestre, RCT 39: II. Air grave et fier
DR14 -1.80 dB -23.18 dB 1:34 23-Les Fêtes de Polymnie, suite d'orchestre, RCT 39: III. Mouvement de Chaconne
DR12 -6.72 dB -25.42 dB 3:19 24-Les Fêtes de Polymnie, suite d'orchestre, RCT 39: IV. Air grave et majestueux
DR13 -9.87 dB -27.09 dB 3:48 25-Les Fêtes de Polymnie, suite d'orchestre, RCT 39: V. Premier et second Menuets
DR12 -13.17 dB -28.37 dB 2:10 26-Les Fêtes de Polymnie, suite d'orchestre, RCT 39: VI. Premier et second Passepieds
DR16 -0.30 dB -19.79 dB 2:06 27-Les Fêtes de Polymnie, suite d'orchestre, RCT 39: VII. Entrée des Peuples
DR12 -7.46 dB -23.24 dB 1:57 28-Les Fêtes De Polymnie, Suite D'Orchestre, Rct 39: VIII. Gigue
DR12 -5.80 dB -21.35 dB 1:56 29-Les Fêtes de Polymnie, suite d'orchestre, RCT 39: IX. Air vif
DR16 -0.38 dB -21.87 dB 1:13 30-Les Fêtes de Polymnie, suite d'orchestre, RCT 39: X. Air fort gai
DR15 -0.30 dB -24.74 dB 2:52 06-Pygmalion, acte de ballet, RCT 52, Scène 3: Récit «Quel prodige ? Quel dieu ?»
DR10 -5.44 dB -22.07 dB 0:26 12-Pygmalion, acte de ballet, RCT 52, Scène 4: Récit «Le peuple en ces lieux s'avance»
DR14 -6.23 dB -25.48 dB 2:11 04-Pygmalion, acte de ballet, RCT 52, Scène 3: Récit «Que d'appas ! Que d'attraits !» (Pygmalion, la Statue)
DR13 -8.83 dB -25.57 dB 1:57 13-Pygmalion, acte de ballet, RCT 52, Scène 5: "Air gay pour l'entrée du peuple qui vient admirer la Statue" (Pygmalion, la Statue & chœurs)
DR14 -4.48 dB -23.30 dB 5:12 18-Pygmalion, acte de ballet, RCT 52, Scène 5: «Règne, Amour» (ariette)
DR15 -2.73 dB -23.34 dB 2:24 07-Pygmalion, acte de ballet, RCT 52, Scène 3: Air «De mes maux à jamais»
DR10 -13.23 dB -29.03 dB 1:04 16-Pygmalion, acte de ballet, RCT 52, Scène 5: Pantomime niaise et un peu lente
DR15 -3.52 dB -22.90 dB 3:36 02-Pygmalion, acte de ballet, RCT 52, Scène 1: Air «Fatal Amour, cruel vainqueur» (Pygmalion)
DR11 -3.53 dB -23.96 dB 1:01 05-Pygmalion, acte de ballet, RCT 52, Scène 3: Récit «D'où naissent ces accords ?»
DR12 -1.86 dB -19.88 dB 1:17 08-Pygmalion, acte de ballet, RCT 52, Scène 4: Récit «Du pouvoir de l'Amour» (L'Amour, Pygmalion & la Statue)
DR11 -1.06 dB -16.98 dB 2:03 09-Pygmalion, acte de ballet, RCT 52, Scène 4: «Jeux et ris qui suivez mes traces» ariette vive et gracieuse
DR15 -0.30 dB -19.55 dB 2:01 03-Pygmalion, acte de ballet, RCT 52, Scène 2: Récit «Pygmalion, est-il possible» (Pygmalion, Céphis)
––––––––––––––––––––––––––––––––––––––––

Number of tracks: 30
Official DR value: DR13

Samplerate: 96000 Hz
Channels: 2
Bits per sample: 24
Bitrate: 2539 kbps
Codec: FLAC
================================================================================


Thanks to the Original customer.