Daniel Harding - Berlioz: Symphonie Fantastique - Rameau: Suite de Hippolyte et Aricie (2016) [Official Digital Download]

Posted By: SERTiL
Daniel Harding - Berlioz: Symphonie Fantastique - Rameau: Suite de Hippolyte et Aricie (2016) [Official Digital Download]

Daniel Harding - Berlioz: Symphonie Fantastique - Rameau: Suite de Hippolyte et Aricie (2016)
FLAC (tracks) 24-bit/48 kHz | Time - 70:45 minutes | 683 MB
Studio Master, Official Digital Download | Artwork: Digital booklet

A world might seem to divide the unbridled Romanticism of Berlioz from the highly controlled art of Rameau, standard-bearer of the French Late Baroque. And yet, at a distance of less than a century ('Hippolyte' was premiered in 1733, the 'Fantastique' in 1830), the same passion links two works more similar than their stylistic divergence might suggest. There is the same audacity in the orchestration, combined with an innate sense of drama that springs repeated rhythmic and harmonic surprises.

The Swedish Radio Symphony Orchestra performs here a task requiring unusual versatility under their Music Director, Daniel Harding, with his matchless gift for establishing a dialogue between two pioneers of genius. Harding is also Principal Guest Conductor of the London Symphony Orchestra and Music Partner of the New Japan Philharmonic. He takes up the baton at the Orchestre de Paris -the first British maestro in the orchestra’s history – in September 2016. He has been honoured with the lifetime title of Conductor Laureate of the Mahler Chamber Orchestra.

TRACKLIST

Jean-Philippe Rameau (1683-1764)

Hippolyte et Aricie, suite d’orchestre
1 I. Ouverture 02:49
2 II. Air en rondeau pour les amours. Gracieusement 02:04
3 III. Marche 00:51
4 IV. Marche. Gracieusement 01:51
5 V. Premier air des Furies. Gravement 01:45
6 VI. Premier et deuxième air des Matelots. Gravement-Pesamment-Vivement 02:09
7 VII. Premier rigaudon en tambourin. Très vite 00:31
8 VIII. Deuxième air des Chasseurs et des chasseresses en rondeau 01:54
9 IX . Première et deuxième gavottes. Vite 01:53

Hector Berlioz (1803-1869)

Symphonie fantastique op.14
10 I. Rêveries - Passions 14:43
11 II. Un bal 06:26
12 II. Scène aux champs 16:25
13 IV. Marche au supplice 07:11
14 V. Songe d'une nuit de sabbat 10:13

PERSONNEL
Swedish Radio Symphony Orchestra
Daniel Harding, conductor

foobar2000 1.3.7 / Dynamic Range Meter 1.1.1
log date: 2017-09-18 18:34:51

––––––––––––––––––––––––––––––––––––––––
Analyzed: Swedish Radio Symphony Orchestra, Daniel Harding / Berlioz: Symphonie Fantastique - Rameau: Suite de Hippolyte et Aricie
––––––––––––––––––––––––––––––––––––––––

DR Peak RMS Duration Track
––––––––––––––––––––––––––––––––––––––––
DR13 -8.05 dB -24.57 dB 2:49 01-I. Ouverture
DR13 -10.60 dB -28.53 dB 2:04 02-II. Air en rondeau pour les amours. Gracieusement
DR13 -7.08 dB -23.62 dB 0:51 03-III. Marche
DR13 -12.45 dB -29.07 dB 1:52 04-IV. Marche. Gracieusement
DR12 -8.31 dB -21.82 dB 1:46 05-V. Premier air des Furies. Gravement
DR14 -5.87 dB -23.56 dB 2:10 06-VI. Premier et deuxième air des Matelots. Gravement-Pesamment-Vivement
DR11 -3.07 dB -21.17 dB 0:31 07-VII. Premier rigaudon en tambourin. Très vite
DR14 -7.83 dB -27.50 dB 1:55 08-VIII. Deuxième Air Des Chasseurs Et Des Chasseresses En Rondeau
DR11 -9.30 dB -24.58 dB 1:53 09-IX . Première et deuxième gavottes. Vite
DR16 -0.50 dB -22.92 dB 14:43 10-I. Rêveries-Passions
DR14 -3.07 dB -23.88 dB 6:27 11-II. Un bal
DR17 -1.54 dB -26.30 dB 16:25 12-III. Scène aux champs
DR13 -0.50 dB -18.05 dB 7:12 13-IV. Marche au supplice
DR13 -0.50 dB -18.41 dB 10:13 14-V. Songe d'une nuit de sabbat
––––––––––––––––––––––––––––––––––––––––

Number of tracks: 14
Official DR value: DR13

Samplerate: 48000 Hz
Channels: 2
Bits per sample: 24
Bitrate: 1398 kbps
Codec: FLAC
================================================================================


Thanks to the Original customer.