Renaissance ‎– Ashes Are Burning (1973 LP/FLAC) In 24bit/96kHz & 16bit/44kHz

Posted By: Fran Solo
Renaissance ‎– Ashes Are Burning (1973 LP/FLAC) In 24bit/96kHz & 16bit/44kHz

Renaissance ‎– Ashes Are Burning
Vinyl | LOG | CUE | FLAC | Tags | Full LP Cover (1:1)
24bit/96kHz: 852mb - 16bit/44kHz: 244mb
Genre: Symphonic-Rock | Label: Sovereign ‎/ SVNA 7261 | 1st UK Gatefold Pressing | Release: 1973
Renaissance ‎– Ashes Are Burning (1973 LP/FLAC) In 24bit/96kHz & 16bit/44kHz

Renaissance ‎– Ashes Are Burning (1973 LP/FLAC) In 24bit/96kHz & 16bit/44kHz

Renaissance ‎– Ashes Are Burning (1973 LP/FLAC) In 24bit/96kHz & 16bit/44kHz

Side A
1 Can You Understand 9:49
2 Let It Grow 4:15
3 On The Frontier 4:53
Side B
1 Carpet Of The Sun 3:31
2 At The Harbour 6:50
3 Ashes Are Burning 11:24

–––––––––––––––––––––––––––––––––––––––––––––––
Analyzed folder: Renaissance ‎– Ashes Are Burning (LP)
–––––––––––––––––––––––––––––––––––––––––––––––
DR Peak RMS Filename
–––––––––––––––––––––––––––––––––––––––––––––––

DR13 -1.62 dB -18.63 dB 01 Renaissance - LADO 1- Can You Understand.wav
DR12 -3.27 dB -19.33 dB 02 Renaissance - Let It Grow.wav
DR12 -6.20 dB -20.51 dB 03 Renaissance - On The Frontier.wav
DR12 -4.10 dB -17.44 dB 04 Renaissance - LADO 2- Carpet Of The Sun.wav
DR15 -6.18 dB -25.95 dB 05 Renaissance - At The Harbour.wav
DR12 -5.06 dB -20.08 dB 06 Renaissance - Ashes Are Burning.wav
–––––––––––––––––––––––––––––––––––––––––––––––

Number of files: 6
Official DR value: DR13

==============================================================================================

Pure Analog Rip
Direct Drive Turntable: Marantz 6170
Cartridge: SHURE M97xE
Amplifier: Sansui 9090DB
Cleaning
RCM Moth MkII Pro Vinyl
LE-BO Magnetic Record Cleaner – PICKERING Antistatic Carbon Fibre
Edition
Adobe Audition CS 5.5 – xACT & XLD (lossless)
Redbook Conversion: Izotope RX Advanced
Clickrepair with Izotope RX Advanced
Full Scan & Corrected LP Cover and LP Rip: Fran Solo
Password: WITHOUT PASSWORD

I think this LP is the cornerstone in the discography of Renaissance, is that it is impossible to ignore the genius of tracks like "Ashes Are Burning" or "The harbour" or etc.
Here Annie Haslam is spectacular with her ​​powerful voice.
Another unmissable.
Fran Solo, MMXIII

Notes (from some sites).
Rennaissance are a group formed in England in 1969 by former Yardbirds members Keith Relf and Jim McCarty with the goal of experimentation between rock, folk, and classical forms. Over the next few years, the group would go through several line-up changes until they completed what most fans regard as the classic five-piece line-up, which would remain together through six studio albums including this one "Ashes Are Burning". It was the first of several Renaissance albums to feature an orchestra playing along with the band on some songs, with a symphonic template similar to the sounds produced by Genesis, and a focus on haunting and beautiful female vocals. Andy Powell (of the group Wishbone Ash) guests as electric guitar soloist on the final title track, which became the band's anthem piece. The album became the band's first to chart in the US, and is regarded as the most fully formed and best album by the classic five-piece band line-up.


Vinyl / CUE/ FLAC/ High Definition Cover - 852mb RAR & 244mb ZIP:
Uploaded 2496
Part 1
Part 2
Part 3

FileFactory 2496
Part 1
Part 2
Part 3

MirrorCreator (Rapidshare - Hotfile -Uploaded - etc.) 2496
Part 1
Part 2
Part 3

1644