Riccardo Muti - Beethoven - Symphony No. 6, Op. 68 "Pastoral" (1979/2021) [Official Digital Download 24/192]

Posted By: pyatak
Riccardo Muti - Beethoven - Symphony No. 6, Op. 68 "Pastoral" (1979/2021) [Official Digital Download 24/192]

Riccardo Muti - Beethoven - Symphony No. 6, Op. 68 "Pastoral" (1979/2021) [Official Digital Download 24/192]
FLAC (tracks) 24-bit/192 kHz | Front Cover | Time - 42:18 minutes | 1,38 GB
Classical | Label: Warner Classics, Official Digital Download

Riccardo Muti, OMRI (Italian: [rikˈkardo ˈmuːti]; born 28 July 1941) is an Italian conductor. He currently holds two music directorships, at the Chicago Symphony Orchestra and at the Orchestra Giovanile Luigi Cherubini. Muti has previously held posts at the Maggio Musicale in Florence, the Philharmonia Orchestra in London, the Philadelphia Orchestra, the Teatro alla Scala in Milan, and the Salzburg Whitsun Festival.

A prolific recording artist, Muti has received dozens of honours and awards. He is especially associated with the music of Giuseppe Verdi. Among the world's leading conductors, in a 2015 Bachtrack poll, he was ranked by music critics as the world's fifth best living conductor.

TRACKLIST

01. Riccardo Muti - Symphony No. 6 in F Major, Op. 68 "Pastoral": I. Erwachen heiterer Empfindungen bei der Ankunft auf dem Lande. Allegro ma non troppo
02. Riccardo Muti - Symphony No. 6 in F Major, Op. 68 "Pastoral": II. Szene am Bach. Andante molto moto
03. Riccardo Muti - Symphony No. 6 in F Major, Op. 68 "Pastoral": III. Lustiges Zusammensein der Landleute. Allegro
04. Riccardo Muti - Symphony No. 6 in F Major, Op. 68 "Pastoral": IV. Gewitter. Sturm. Allegro
05. Riccardo Muti - Symphony No. 6 in F Major, Op. 68 "Pastoral": V. Hirtengesang. Frohe und dankbare Gefühle nach dem Sturm. Allegretto

foobar2000 1.6.2 / Dynamic Range Meter 1.1.1
log date: 2021-05-23 17:33:53

––––––––––––––––––––––––––––––––––––––––
Analyzed: Riccardo Muti / Beethoven: Symphony No. 6, Op. 68 "Pastoral"
––––––––––––––––––––––––––––––––––––––––

DR Peak RMS Duration Track
––––––––––––––––––––––––––––––––––––––––
DR13 -0.93 dB -19.32 dB 11:45 01-Symphony No. 6 in F Major, Op. 68 "Pastoral": I. Erwachen heiterer Empfindungen bei der Ankunft auf dem Lande. Allegro ma non troppo
DR13 -2.50 dB -22.24 dB 11:38 02-Symphony No. 6 in F Major, Op. 68 "Pastoral": II. Szene am Bach. Andante molto moto
DR11 -2.85 dB -19.09 dB 5:41 03-Symphony No. 6 in F Major, Op. 68 "Pastoral": III. Lustiges Zusammensein der Landleute. Allegro
DR12 -0.77 dB -18.13 dB 3:51 04-Symphony No. 6 in F Major, Op. 68 "Pastoral": IV. Gewitter. Sturm. Allegro
DR12 -1.80 dB -19.07 dB 9:26 05-Symphony No. 6 in F Major, Op. 68 "Pastoral": V. Hirtengesang. Frohe und dankbare Gefühle nach dem Sturm. Allegretto
––––––––––––––––––––––––––––––––––––––––

Number of tracks: 5
Official DR value: DR12

Samplerate: 192000 Hz
Channels: 2
Bits per sample: 24
Bitrate: 4523 kbps
Codec: FLAC
================================================================================



Thanks to the Original customer.