Rick Wakeman - The Six Wives Of Henry VIII (1973/2021) [Official Digital Download 24/96]

Posted By: pyatak
Rick Wakeman - The Six Wives Of Henry VIII (1973/2021) [Official Digital Download 24/96]

Rick Wakeman - The Six Wives Of Henry VIII (1973/2021) [Official Digital Download 24/96]
FLAC (tracks) 24-bit/96 kHz | Front Cover | Time - 36:29 minutes | 814 MB
Progressive Rock | Label: A&M Records, Official Digital Download

The Six Wives of Henry VIII is the second studio album by English keyboardist Rick Wakeman, released in January 1973 on A&M Records. It is an instrumental progressive rock album with its concept based on his interpretations of the musical characteristics of the wives of Henry VIII. After signing with A&M as a solo artist, Wakeman decided on the album's concept during a tour of the United States as a member of the rock band Yes. As he read a book about the subject on his travels, melodies he had written the previous year came to him and were noted down. Musicians from Yes and from Strawbs, the group Wakeman was in prior to Yes, also play on the album.

Inspired by a biography of Henry VIII which Wakeman bought at an airport while on his first US tour with Yes, The Six Wives Of Henry VIII provided the keyboardist with a convenient framing device within which to mount a series of melodies he had been toying with for some time. Gathering together a formidable ensemble comprised, in part, of erstwhile and then-current bandmates from Yes and Strawbs, Wakeman fashioned his compositions into distinct themes and timbres, ostensibly to suggest the characteristics (and destiny) of each of the six wives.

TRACKLIST

1. Rick Wakeman - Catherine Of Aragon
2. Rick Wakeman - Anne Of Cleves
3. Rick Wakeman - Catherine Howard
4. Rick Wakeman - Jane Seymour
5. Rick Wakeman - Anne Boleyn 'The Day Thou Gavest Lord Hath Ended'
6. Rick Wakeman - Catherine Parr

foobar2000 1.6.2 / Dynamic Range Meter 1.1.1
log date: 2021-03-27 09:30:50

––––––––––––––––––––––––––––––––––––––––
Analyzed: Rick Wakeman / The Six Wives Of Henry VIII
––––––––––––––––––––––––––––––––––––––––

DR Peak RMS Duration Track
––––––––––––––––––––––––––––––––––––––––
DR10 -0.30 dB -13.72 dB 3:45 01-Catherine Of Aragon
DR12 -0.30 dB -14.52 dB 7:53 02-Anne Of Cleves
DR11 -0.30 dB -14.71 dB 6:39 03-Catherine Howard
DR10 -0.30 dB -15.73 dB 4:46 04-Jane Seymour
DR11 -0.30 dB -14.84 dB 6:32 05-Anne Boleyn 'The Day Thou Gavest Lord Hath Ended'
DR11 -0.74 dB -14.71 dB 7:03 06-Catherine Parr
––––––––––––––––––––––––––––––––––––––––

Number of tracks: 6
Official DR value: DR11

Samplerate: 96000 Hz
Channels: 2
Bits per sample: 24
Bitrate: 3070 kbps
Codec: FLAC
================================================================================



Thanks to the Original customer.