Ringo Starr - Bad Boy (1978/2020) [Official Digital Download 24/192]

Posted By: pyatak
Ringo Starr - Bad Boy (1978/2020) [Official Digital Download 24/192]

Ringo Starr - Bad Boy (1978/2020) [Official Digital Download 24/192]
FLAC (tracks) 24-bit/192 kHz | Front Cover | Time - 40:39 minutes | 1,31 GB
Rock | Label: Epic - Legacy, Official Digital Download

The second Ringo album in a row to miss the charts completely, 1978's Bad Boy ranks right up there with George Harrison's Gone Troppo as the worst album ever released by a member of the Beatles. Produced by schlockmeister Vini Poncia, the clueless nature of record is best summed up by the stiff disco cover of the Supremes' "Where Did Our Love Go," which is actually (and unbelievably) one of Bad Boy's highlights. The other tracks here barely qualify as filler, although Ringo's rendition of the old New Orleans soul classic "Lipstick Traces (On a Cigarette)" does exude some hangdog charm. For the most part, Bad Boy sounds like the work of a man who keeps making records simply because he doesn't know how to do anything else. Poor Ringo. –Dan Epstein

TRACKLIST

01. Ringo Starr - Who Needs a Heart
02. Ringo Starr - Bad Boy
03. Ringo Starr - Lipstick Traces (On a Cigarette)
04. Ringo Starr - Heart On My Sleeve
05. Ringo Starr - Where Did Our Love Go
06. Ringo Starr - Hard Times
07. Ringo Starr - Tonight
08. Ringo Starr - Monkey See-Monkey Do
09. Ringo Starr - Old Time Relovin'
10. Ringo Starr - A Man Like Me
11. Ringo Starr - Heart On My Sleeve (Single Version)
12. Ringo Starr - Lipstick Traces (On a Cigarette) (Single Version)

foobar2000 1.6.2 / Dynamic Range Meter 1.1.1
log date: 2021-04-04 08:21:42

––––––––––––––––––––––––––––––––––––––––
Analyzed: Ringo Starr / Bad Boy
––––––––––––––––––––––––––––––––––––––––

DR Peak RMS Duration Track
––––––––––––––––––––––––––––––––––––––––
DR13 -0.05 dB -14.80 dB 3:50 01-Who Needs a Heart
DR13 -0.71 dB -16.56 dB 3:18 02-Bad Boy
DR13 -0.10 dB -15.12 dB 3:02 03-Lipstick Traces (On a Cigarette)
DR13 -0.05 dB -15.11 dB 3:23 04-Heart On My Sleeve
DR13 -0.40 dB -15.32 dB 3:17 05-Where Did Our Love Go
DR12 -0.05 dB -13.98 dB 3:34 06-Hard Times
DR13 -0.05 dB -14.97 dB 2:58 07-Tonight
DR14 -0.05 dB -15.64 dB 3:38 08-Monkey See-Monkey Do
DR13 -0.22 dB -15.86 dB 4:18 09-Old Time Relovin'
DR13 -1.80 dB -18.21 dB 3:13 10-A Man Like Me
DR13 -0.05 dB -15.24 dB 3:08 11-Heart On My Sleeve (Single Version)
DR13 -0.35 dB -14.79 dB 3:00 12-Lipstick Traces (On a Cigarette) (Single Version)
––––––––––––––––––––––––––––––––––––––––

Number of tracks: 12
Official DR value: DR13

Samplerate: 192000 Hz
Channels: 2
Bits per sample: 24
Bitrate: 2404 kbps
Codec: FLAC
================================================================================



Thanks to the Original customer.