Ringo Starr - Old Wave (1983/2021) [Official Digital Download 24/96]

Posted By: pyatak
Ringo Starr - Old Wave (1983/2021) [Official Digital Download 24/96]

Ringo Starr - Old Wave (1983/2021) [Official Digital Download 24/96]
FLAC (tracks) 24-bit/96 kHz | Front Cover | Time - 36:46 minutes | 670 MB
Rock | Label: Boardwalk Records, Official Digital Download

Produced by Joe Walsh, Old Wave was a well-put-together collection of good pop/rock songs that was all wrong for Ringo Starr. The songs required interpretive abilities simply not found in a singer of Ringo's pleasant, but limited voice and phrasing. "She's About a Mover" and "I Keep Forgettin"' were appropriate covers, but Ringo was out of his depth on reflective songs like "Picture Show Life" and "As Far as We Can Go." There was also a throwaway instrumental, "Everybody's in a Hurry but Me," featuring Eric Clapton and John Entwistle. Neil Bogart, the head of Boardwalk, Ringo's record label, died during the making of this album, and the closest it got to an American release was on RCA Canada, which was just as well.

TRACKLIST

1. Ringo Starr - In My Car
2. Ringo Starr - Hopeless
3. Ringo Starr - Alibi
4. Ringo Starr - Be My Baby
5. Ringo Starr - She's About a Mover
6. Ringo Starr - I Keep Forgettin'
7. Ringo Starr - Picture Show Life
8. Ringo Starr - As Far as We Can Go
9. Ringo Starr - Everybody's in a Hurry but Me
10. Ringo Starr - Going Down

foobar2000 1.6.2 / Dynamic Range Meter 1.1.1
log date: 2021-04-02 09:04:28

––––––––––––––––––––––––––––––––––––––––
Analyzed: Ringo Starr / Old Wave
––––––––––––––––––––––––––––––––––––––––

DR Peak RMS Duration Track
––––––––––––––––––––––––––––––––––––––––
DR12 -1.23 dB -15.39 dB 3:13 01-In My Car
DR13 -1.24 dB -16.04 dB 3:17 02-Hopeless
DR13 -1.90 dB -17.97 dB 4:01 03-Alibi
DR14 -1.51 dB -17.40 dB 3:47 04-Be My Baby
DR13 -1.37 dB -15.54 dB 3:53 05-She's About a Mover
DR14 -1.22 dB -16.54 dB 4:19 06-I Keep Forgettin'
DR14 -1.22 dB -18.08 dB 4:19 07-Picture Show Life
DR12 -2.04 dB -17.75 dB 3:51 08-As Far as We Can Go
DR12 -1.23 dB -14.87 dB 2:35 09-Everybody's in a Hurry but Me
DR13 -1.37 dB -16.20 dB 3:31 10-Going Down
––––––––––––––––––––––––––––––––––––––––

Number of tracks: 10
Official DR value: DR13

Samplerate: 96000 Hz
Channels: 2
Bits per sample: 24
Bitrate: 2546 kbps
Codec: FLAC
================================================================================



Thanks to the Original customer.