Roberta Flack - Chapter Two (50th Anniversary Edition) (2021 Remaster) (1970/2021) [Official Digital Download 24/192]

Posted By: pyatak
Roberta Flack - Chapter Two (50th Anniversary Edition) (2021 Remaster) (1970/2021) [Official Digital Download 24/192]

Roberta Flack - Chapter Two (50th Anniversary Edition) (2021 Remaster) (1970/2021) [Official Digital Download 24/192]
FLAC (tracks) 24-bit/192 kHz | Front Cover | Time - 42:15 minutes | 1,49 GB
Soul | Label: Rhino Atlantic, Official Digital Download

50 years ago this month, Roberta Flack released her sophomore album, an LP which – despite failing to match the crazy commercial success of her debut, FIRST TAKE, with mainstream audiences – still packed a solid emotional punch and served to cement her superstar status on the R&B and jazz charts.

Mind you, at this point, FIRST TAKE hadn’t actually become a crazy commercial success. But we’ll get to that.

Produced by Joel Dorn, who’d also helmed Flack’s aforementioned debut album, CHAPTER TWO was – not entirely surprisingly – recorded in the same spot as FIRST TAKE: Atlantic Studios in New York City. The material selected for inclusion was stylistically diverse, including songs by Jimmy Webb (“Do What You Gotta Do”), Bob Dylan (“Just Like a Woman”), and Buffy Sainte-Marie (“Until It’s Time for You to Go”), as well as “The Impossible Dream” from Man of La Mancha.

Oh, and there was one more very important song in the mix that’s worth of specific note: “Gone Away,” a tune penned by Curtis Mayfield, Leroy Hutson, and a man who would prove to be very important in her life and career, Donny Hathaway.

Two tracks from CHAPTER TWO were released as singles – “Reverend Lee” and “Do What You Gotta Do” – and both failed to chart in any significant way, although the latter did manage to bubble under the Hot 100. Not exactly what you’d call a stellar chart performance, granted, but don’t worry: Flack’s fortunes were about to change in a dramatic way, thanks to the assistance of a fella by the name of Clint Eastwood.

Even though it’s post-CHAPTER TWO, we’ll still tell this quick story, just so you don’t feel bad about the fact that the album wasn’t originally a major success: in 1972, Eastwood was putting together the soundtrack for his film PLAY MISTY FOR ME, and he decided to utilize a song from FIRST TAKE, this ditty by Ewan MacColl called “The First Time Ever I Saw Your Face.” Maybe you’ve heard of it? Well, after the film was released, so had everyone else: the song vaulted to #1 on the Billboard Hot 100, staying there for a total of six weeks, and led to the album eventually going platinum.

Needless to say, there was a sudden rush by new Flack fans to pick up her albums, at which point CHAPTER TWO finally got its just desserts as well as the public appreciation it deserved in the first place.

TRACKLIST

01. Roberta Flack - Reverend Lee (2021 Remaster)
02. Roberta Flack - Do What You Gotta Do (2021 Remaster)
03. Roberta Flack - Just Like a Woman (2021 Remaster)
04. Roberta Flack - Let It Be Me (2021 Remaster)
05. Roberta Flack - Gone Away (2021 Remaster)
06. Roberta Flack - Until It's Time for You to Go (2021 Remaster)
07. Roberta Flack - The Impossible Dream (2021 Remaster)
08. Roberta Flack - Business Goes On as Usual (2021 Remaster)
09. Roberta Flack - Midnight Cowboy (2021 Remaster)

foobar2000 1.6.2 / Dynamic Range Meter 1.1.1
log date: 2021-06-25 03:38:16

––––––––––––––––––––––––––––––––––––––––
Analyzed: Roberta Flack / Chapter Two (50th Anniversary Edition)
––––––––––––––––––––––––––––––––––––––––

DR Peak RMS Duration Track
––––––––––––––––––––––––––––––––––––––––
DR10 -0.10 dB -12.74 dB 4:32 01-Reverend Lee (2021 Remaster)
DR10 -0.10 dB -12.90 dB 4:10 02-Do What You Gotta Do (2021 Remaster)
DR11 -0.49 dB -15.05 dB 6:15 03-Just Like a Woman (2021 Remaster)
DR12 -0.10 dB -15.56 dB 5:00 04-Let It Be Me (2021 Remaster)
DR9 -0.10 dB -11.72 dB 5:17 05-Gone Away (2021 Remaster)
DR11 -0.10 dB -14.46 dB 4:58 06-Until It's Time for You to Go (2021 Remaster)
DR10 -0.10 dB -14.04 dB 4:42 07-The Impossible Dream (2021 Remaster)
DR11 -1.74 dB -20.57 dB 3:30 08-Business Goes On as Usual (2021 Remaster)
DR12 -0.10 dB -15.25 dB 3:52 09-Midnight Cowboy (2021 Remaster)
––––––––––––––––––––––––––––––––––––––––

Number of tracks: 9
Official DR value: DR11

Samplerate: 192000 Hz
Channels: 2
Bits per sample: 24
Bitrate: 4790 kbps
Codec: FLAC
================================================================================



Thanks to the Original customer.