Roberta Flack - Quiet Fire (50th Anniversary Edition) (2021 Remaster) (1971/2021) [Official Digital Download 24/192]

Posted By: pyatak
Roberta Flack - Quiet Fire (50th Anniversary Edition) (2021 Remaster) (1971/2021) [Official Digital Download 24/192]

Roberta Flack - Quiet Fire (50th Anniversary Edition) (2021 Remaster) (1971/2021) [Official Digital Download 24/192]
FLAC (tracks) 24-bit/192 kHz | Front Cover | Time - 86:38 minutes | 2,85 GB
Soul, Jazz | Label: Rhino Atlantic, Official Digital Download

Quiet Fire is the third studio album by American singer-songwriter Roberta Flack, released in November 1971 by Atlantic Records. It was recorded at Atlantic Recording Studios, Regent Studios, and The Hit Factory in New York City. The album peaked at number 18 on the Billboard Top LPs & Tape, and its single "Will You Still Love Me Tomorrow" charted at number 76 on the Hot 100.

TRACKLIST

01. Roberta Flack - Go Up Moses (2021 Remaster)
02. Roberta Flack - Bridge Over Troubled Water (2021 Remaster)
03. Roberta Flack - Sunday and Sister Jones (2021 Remaster)
04. Roberta Flack - See You Then (2021 Remaster)
05. Roberta Flack - Will You Still Love Me Tomorrow (2021 Remaster)
06. Roberta Flack - To Love Somebody (2021 Remaster)
07. Roberta Flack - Let Them Talk (2021 Remaster)
08. Roberta Flack - Sweet Bitter Love (2021 Remaster)
09. Roberta Flack - What's Going On (2021 Remaster)
10. Roberta Flack - Free at Last (2021 Remaster)
11. Roberta Flack - Chasin' the Sunshine (2021 Remaster)
12. Roberta Flack - Here, There and Everywhere (2021 Remaster)
13. Roberta Flack - O-o-h Child (2021 Remaster)
14. Roberta Flack - With These Hands (2021 Remaster)
15. Roberta Flack - Superstar (2021 Remaster)

foobar2000 1.6.2 / Dynamic Range Meter 1.1.1
log date: 2021-06-25 04:02:06

––––––––––––––––––––––––––––––––––––––––
Analyzed: Roberta Flack / Quiet Fire
––––––––––––––––––––––––––––––––––––––––

DR Peak RMS Duration Track
––––––––––––––––––––––––––––––––––––––––
DR12 -0.10 dB -15.33 dB 5:24 01-Go Up Moses (2021 Remaster)
DR12 -0.10 dB -17.42 dB 7:17 02-Bridge Over Troubled Water (2021 Remaster)
DR12 -0.10 dB -15.95 dB 5:01 03-Sunday and Sister Jones (2021 Remaster)
DR11 -0.51 dB -16.73 dB 3:45 04-See You Then (2021 Remaster)
DR12 -1.41 dB -18.43 dB 4:09 05-Will You Still Love Me Tomorrow (2021 Remaster)
DR11 -0.10 dB -14.81 dB 6:44 06-To Love Somebody (2021 Remaster)
DR12 -0.10 dB -15.96 dB 3:55 07-Let Them Talk (2021 Remaster)
DR12 -0.10 dB -16.19 dB 6:08 08-Sweet Bitter Love (2021 Remaster)
DR13 -0.27 dB -14.80 dB 6:32 09-What's Going On (2021 Remaster)
DR13 -0.10 dB -17.92 dB 5:50 10-Free at Last (2021 Remaster)
DR11 -5.66 dB -21.25 dB 2:44 11-Chasin' the Sunshine (2021 Remaster)
DR13 -0.26 dB -18.15 dB 6:28 12-Here, There and Everywhere (2021 Remaster)
DR11 -0.12 dB -16.19 dB 2:01 13-O-o-h Child (2021 Remaster)
DR12 -0.71 dB -16.63 dB 5:43 14-With These Hands (2021 Remaster)
DR13 -0.10 dB -16.76 dB 14:59 15-Superstar (2021 Remaster)
––––––––––––––––––––––––––––––––––––––––

Number of tracks: 15
Official DR value: DR12

Samplerate: 192000 Hz
Channels: 2
Bits per sample: 24
Bitrate: 4882 kbps
Codec: FLAC
================================================================================



Thanks to the Original customer.