Robin McKelle - Melodic Canvas (2018) [Official Digital Download 24/96]

Posted By: Pisulik
Robin McKelle - Melodic Canvas (2018) [Official Digital Download 24/96]

Robin McKelle - Melodic Canvas (2018)
FLAC (tracks) 24-bit/96 kHz | Time - 51:55 minutes | 1,05 GB
Studio Master, Official Digital Download | Artwork: Front cover

An enigmatic sound, a storyteller's narrative and a live performance style imbued with rat pack moxie singer and writer Robin McKelle is a genre-blurring musical alchemist, taking listeners on a sonic trip to the old south, sprinkling in hints of the Motown era or even a Sade album, and mixing it together to create her inspiring 'melodic canvas' of soul, jazz, gospel and more.

Tracklist:

01. Do You Believe
02. Lyla
03. Come to Me
04. Your're No Good
05. Swing Low, Sweet Chariot
06. Simple Man
07. The Sun Died
08. Yes We Can Can
09. It Won't End Up
10. Il est Mort le Soleil

foobar2000 1.3.7 / Dynamic Range Meter 1.1.1
log date: 2018-04-19 16:17:53

––––––––––––––––––––––––––––––––––––––––
Analyzed: Robin McKelle / Melodic Canvas
––––––––––––––––––––––––––––––––––––––––

DR Peak RMS Duration Track
––––––––––––––––––––––––––––––––––––––––
DR10 -0.92 dB -13.35 dB 3:27 01-Do You Believe
DR9 -0.92 dB -13.10 dB 5:55 02-Lyla
DR11 -0.92 dB -14.45 dB 5:29 03-Come to Me
DR10 -0.92 dB -13.90 dB 5:13 04-Your're No Good
DR9 -0.99 dB -12.20 dB 5:38 05-Swing Low, Sweet Chariot
DR9 -0.92 dB -12.89 dB 5:29 06-Simple Man
DR12 -0.92 dB -15.47 dB 4:23 07-The Sun Died
DR9 -0.92 dB -12.95 dB 6:12 08-Yes We Can Can
DR10 -0.92 dB -12.72 dB 5:44 09-It Won't End Up
DR11 -0.92 dB -15.01 dB 4:28 10-Il est Mort le Soleil
––––––––––––––––––––––––––––––––––––––––

Number of tracks: 10
Official DR value: DR10

Samplerate: 96000 Hz
Channels: 2
Bits per sample: 24
Bitrate: 2644 kbps
Codec: FLAC
================================================================================


All thanks go to the original releaser