Tags
Language
Tags

Roderick Williams - Schubert - Winterreise, Op. 89, D. 911 (2021) [Official Digital Download 24/96]

Posted By: pyatak
Roderick Williams - Schubert - Winterreise, Op. 89, D. 911 (2021) [Official Digital Download 24/96]

Roderick Williams - Schubert- Winterreise, Op. 89, D. 911 (2021) [Official Digital Download 24/96]
FLAC (tracks) 24-bit/96 kHz | Front Cover | Time - 71:32 minutes | 1,1 GB
Classical | Label: Chandos, Official Digital Download

Roderick Williams and Iain Burnside complete their survey of Schubert’s song cycles with this recording of Winterreise. Composed in the late 1820s, towards the end of Schubert’s tragically short life, Winterreise (Winter Journey) is a setting of twenty-four poems by Wilhelm Müller and describes a traveller leaving the town which was the home of the object of his unrequited love, to embark on a long journey, through a chill, wintry landscape, which ends in near-suicidal despair.

This recording represents the culmination of a project that started back in 2015, when Williams accepted the challenge to prepare and perform all three song cycles in one season at the Wigmore Hall in London. Turning this challenge into a shared learning experience, Williams lead workshops and study days as well as numerous performances in a variety of venues. His blog covers the entire project and is a fascinating document well-worth reading: rwschubertcycleproject.blogspot.com/

As in the case of the previous instalments (Schwanengesang and Die schöne Müllerin), also recorded at Potton Hall, Suffolk, Roderick Williams is accompanied by Iain Burnside, who plays a Steinway Model D.

TRACKLIST

1. Roderick Williams - No. 1, Gute Nacht
2. Roderick Williams - No. 2, Die Wetterfahne
3. Roderick Williams - No. 3, Gefrorne Tränen
4. Roderick Williams - No. 4, Erstarrung
5. Roderick Williams - No. 5, Der Lindenbaum
6. Roderick Williams - No. 6, Wasserflut
7. Roderick Williams - No. 7, Auf dem Flusse
8. Roderick Williams - No. 8, Rückblick
9. Roderick Williams - No. 9, Irrlicht
10. Roderick Williams - No. 10, Rast
11. Roderick Williams - No. 11, Frühlingstraum
12. Roderick Williams - No. 12, Einsamkeit
13. Roderick Williams - No. 13, Die Post
14. Roderick Williams - No. 14, Der greise Kopf
15. Roderick Williams - No. 15, Die Krähe
16. Roderick Williams - No. 16, Letzte Hoffnung
17. Roderick Williams - No. 17, Im Dorfe
18. Roderick Williams - No. 18, Der stürmische Morgen
19. Roderick Williams - No. 19, Täuschung
20. Roderick Williams - No. 20, Der Wegweiser
21. Roderick Williams - No. 21, Das Wirtshaus
22. Roderick Williams - No. 22, Mut
23. Roderick Williams - No. 23, Die Nebensonnen
24. Roderick Williams - No. 24, Der Leiermann

foobar2000 1.6.2 / Dynamic Range Meter 1.1.1
log date: 2021-02-02 21:35:56

––––––––––––––––––––––––––––––––––––––––
Analyzed: Roderick Williams / Schubert: Winterreise, Op. 89, D. 911
––––––––––––––––––––––––––––––––––––––––

DR Peak RMS Duration Track
––––––––––––––––––––––––––––––––––––––––
DR14 -12.92 dB -31.86 dB 5:28 01-No. 1, Gute Nacht
DR13 -8.44 dB -26.68 dB 1:59 02-No. 2, Die Wetterfahne
DR15 -5.63 dB -28.14 dB 2:21 03-No. 3, Gefrorne Tränen
DR15 -6.01 dB -25.65 dB 3:17 04-No. 4, Erstarrung
DR14 -11.49 dB -32.17 dB 4:49 05-No. 5, Der Lindenbaum
DR17 -3.79 dB -28.83 dB 3:51 06-No. 6, Wasserflut
DR13 -3.02 dB -26.39 dB 3:28 07-No. 7, Auf dem Flusse
DR14 -7.78 dB -26.08 dB 2:09 08-No. 8, Rückblick
DR16 -8.67 dB -32.23 dB 2:33 09-No. 9, Irrlicht
DR16 -7.83 dB -31.47 dB 3:25 10-No. 10, Rast
DR16 -6.12 dB -29.50 dB 3:53 11-No. 11, Frühlingstraum
DR14 -7.67 dB -28.13 dB 2:38 12-No. 12, Einsamkeit
DR14 -6.47 dB -26.31 dB 2:17 13-No. 13, Die Post
DR16 -9.55 dB -32.77 dB 2:51 14-No. 14, Der greise Kopf
DR12 -6.05 dB -29.32 dB 2:06 15-No. 15, Die Krähe
DR15 -5.83 dB -27.87 dB 2:06 16-No. 16, Letzte Hoffnung
DR15 -9.79 dB -31.82 dB 3:31 17-No. 17, Im Dorfe
DR13 -4.59 dB -23.96 dB 0:56 18-No. 18, Der stürmische Morgen
DR12 -17.46 dB -34.04 dB 1:28 19-No. 19, Täuschung
DR16 -9.05 dB -32.26 dB 4:17 20-No. 20, Der Wegweiser
DR15 -10.77 dB -31.55 dB 4:18 21-No. 21, Das Wirtshaus
DR14 -0.68 dB -23.00 dB 1:31 22-No. 22, Mut
DR15 -9.20 dB -30.93 dB 2:53 23-No. 23, Die Nebensonnen
DR16 -16.59 dB -38.52 dB 3:43 24-No. 24, Der Leiermann
––––––––––––––––––––––––––––––––––––––––

Number of tracks: 24
Official DR value: DR15

Samplerate: 96000 Hz
Channels: 2
Bits per sample: 24
Bitrate: 1991 kbps
Codec: FLAC
================================================================================



Thanks to the Original customer.