Tags
Language
Tags

Rory Gallagher - Rory Gallagher (50th Anniversary Edition) (1971/2021) [Official Digital Download 24/96]

Posted By: pyatak
Rory Gallagher - Rory Gallagher (50th Anniversary Edition) (1971/2021) [Official Digital Download 24/96]

Rory Gallagher - Rory Gallagher (50th Anniversary Edition) (1971/2021) [Official Digital Download 24/96]
FLAC (tracks) 24-bit/96 kHz | Front Cover | Time - 01:45:19 minutes | 2,13 GB
Blues Rock, Rock | Studio Master, Official Digital Download

Five-disc Deluxe Box Set includes a new mix of the original album, 30 previously unreleased outtakes and alternate takes, a six-song 1971 BBC Radio John Peel Sunday concert, four BBC Radio session tracks, plus previously unreleased 50-minute DVD of Rory’s first-ever solo concert which was filmed in Paris for the “Pop Deux” television show.

To celebrate the 50th Anniversary of Rory Gallagher’s eponymous 1971 debut solo album, UMC/UMe is pleased to announce the September 3 release of a five-disc deluxe box set of the album. Rory Gallagher 50th Anniversary Edition will include a brand-new mix of the original album, 30 previously unreleased outtakes and alternate takes, a six-song 1971 BBC Radio John Peel Sunday Concert, plus four 1971 BBC Radio Sounds of the Seventies session tracks, all mastered at Abbey Road Studios.

TRACKLIST

01. Rory Gallagher - Laundromat (50th Anniversary Edition Mix)
02. Rory Gallagher - Just The Smile (50th Anniversary Edition Mix)
03. Rory Gallagher - I Fall Apart (50th Anniversary Edition Mix)
04. Rory Gallagher - Wave Myself Goodbye (50th Anniversary Edition Mix)
05. Rory Gallagher - Hands Up (50th Anniversary Edition Mix)
06. Rory Gallagher - Sinner Boy (50th Anniversary Edition Mix)
07. Rory Gallagher - For The Last Time (50th Anniversary Edition Mix)
08. Rory Gallagher - It's You (50th Anniversary Edition Mix)
09. Rory Gallagher - I'm Not Surprised (50th Anniversary Edition Mix)
10. Rory Gallagher - Can't Believe It's True (50th Anniversary Edition Mix)
11. Rory Gallagher - Gypsy Woman (Tangerine Studio Session)
12. Rory Gallagher - It Takes Time (Tangerine Studio Session)
13. Rory Gallagher - I Fall Apart (Tangerine Studio Session)
14. Rory Gallagher - At The Bottom (Alternate Take 3)
15. Rory Gallagher - At The Bottom (Alternate Take 4)
16. Rory Gallagher - Advision Jam
17. Rory Gallagher - Laundromat (Alternate Take 1)
18. Rory Gallagher - Just The Smile (Alternate Take 1)
19. Rory Gallagher - Wave Myself Goodbye (Alternate Take 2)
20. Rory Gallagher - Hands Up (Alternate Take 2)
21. Rory Gallagher - Sinner Boy (Alternate Take 3)
22. Rory Gallagher - For The Last Time (Alternate Take 1)
23. Rory Gallagher - It's You (Alternate Take 2)
24. Rory Gallagher - I'm Not Suprised (Alternate Take 1)

foobar2000 1.6.2 / Dynamic Range Meter 1.1.1
log date: 2021-09-02 13:53:24

––––––––––––––––––––––––––––––––––––––––
Analyzed: Rory Gallagher / Rory Gallagher (50th Anniversary Edition)
––––––––––––––––––––––––––––––––––––––––

DR Peak RMS Duration Track
––––––––––––––––––––––––––––––––––––––––
DR9 -0.20 dB -10.47 dB 4:40 01-Laundromat (50th Anniversary Edition Mix)
DR12 -0.46 dB -15.08 dB 3:41 02-Just The Smile (50th Anniversary Edition Mix)
DR7 -1.56 dB -11.28 dB 5:13 03-I Fall Apart (50th Anniversary Edition Mix)
DR13 -0.67 dB -16.77 dB 3:31 04-Wave Myself Goodbye (50th Anniversary Edition Mix)
DR9 -0.85 dB -11.97 dB 5:26 05-Hands Up (50th Anniversary Edition Mix)
DR9 -0.21 dB -11.13 dB 5:07 06-Sinner Boy (50th Anniversary Edition Mix)
DR10 -1.52 dB -13.50 dB 6:38 07-For The Last Time (50th Anniversary Edition Mix)
DR10 -2.10 dB -14.40 dB 2:41 08-It's You (50th Anniversary Edition Mix)
DR12 -0.57 dB -15.20 dB 3:38 09-I'm Not Surprised (50th Anniversary Edition Mix)
DR9 -1.87 dB -13.41 dB 7:17 10-Can't Believe It's True (50th Anniversary Edition Mix)
DR11 -0.67 dB -15.34 dB 4:02 11-Gypsy Woman (Tangerine Studio Session)
DR9 -3.39 dB -13.47 dB 3:34 12-It Takes Time (Tangerine Studio Session)
DR9 -0.27 dB -12.38 dB 4:45 13-I Fall Apart (Tangerine Studio Session)
DR11 -2.42 dB -15.54 dB 3:23 14-At The Bottom (Alternate Take 3)
DR11 -0.48 dB -14.45 dB 2:50 15-At The Bottom (Alternate Take 4)
DR12 -0.51 dB -13.56 dB 3:46 16-Advision Jam
DR10 -0.29 dB -11.36 dB 3:35 17-Laundromat (Alternate Take 1)
DR12 -0.68 dB -15.30 dB 3:29 18-Just The Smile (Alternate Take 1)
DR14 -0.60 dB -17.05 dB 4:45 19-Wave Myself Goodbye (Alternate Take 2)
DR9 -0.47 dB -11.76 dB 5:54 20-Hands Up (Alternate Take 2)
DR9 -0.79 dB -11.89 dB 5:23 21-Sinner Boy (Alternate Take 3)
DR10 -1.44 dB -14.63 dB 5:05 22-For The Last Time (Alternate Take 1)
DR11 -2.20 dB -15.29 dB 2:41 23-It's You (Alternate Take 2)
DR12 -1.34 dB -16.38 dB 4:18 24-I'm Not Suprised (Alternate Take 1)
––––––––––––––––––––––––––––––––––––––––

Number of tracks: 24
Official DR value: DR10

Samplerate: 96000 Hz
Channels: 2
Bits per sample: 24
Bitrate: 2763 kbps
Codec: FLAC
================================================================================



Thanks to the Original customer.