Roxy Music - Roxy Music (1972/2015) [SACD-R][OF]

Posted By: Discograf_man
Roxy Music - Roxy Music (1972/2015) [SACD-R][OF]

Roxy Music - Roxy Music (1972/2015) [SACD-R][OF]
Art Rock, Experimental, Glam | SACD ISO: DSD64 2.0 > 1-bit/2.8224 MHz
Artwork 14.6 Mb | 1.74 GB + 5% Recovery
Label: Virgin | Release Year: 1972/2015

Roxy Music’s self-titled debut was originally released in 1972 to critical acclaim and exemplified the band’s penchant for glamour, both in the lyrics and with the album cover of model Kari-Ann Muller, kickstarting a tradition of iconic album covers featuring female models. "The album is really kind of a tracer as to where we could go," explains Ferry. "There are lots of different directions there, and deliberately so, because we never really did want to have one recognisable sound. Being elusive is one of the things we quite like, and being as varied as possible."
Tracklist:
1. Re-Make/Re-Model
2. Ladytron
3. If There Is Something
4. 2 H.B.
5. The Bob (Medley)
6. Chance Meeting
7. Would You Believe?
8. Sea Breezes
9. Bitters End
Roxy Music - Roxy Music (1972/2015) [SACD-R][OF]

16908372[0x1020054]: SACD-Ripper Version 0.21
16908372[0x1020054]: disc inserted..
16908372[0x1020054]: config: 00 00 00 0c 00 00 00 10 ff 41 01 04 00 00 00 00
16908372[0x1020054]: config: 00 00 00 00 00 00 00 00 00 00 00 00 00 00 00 00
16908372[0x1020054]: config: 00 00 00 00 00 00 00 00 00 00 00 00 00 00 00 00
16908372[0x1020054]: config: 00 00 00 00 00 00 00 00 00 00 00 00 00 00 00 00
16908372[0x1020054]: device_info: 75 6e 6e 61 6d 65 5c d0 80 00 00 00 00 53 a0 00
16908372[0x1020054]: device_info: 80 00 00 00 10 13 de 70 80 00 00 00 00 5e 1c 00
16908372[0x1020054]: device_info: 00 00 00 00 00 00 00 00 00 00 00 00 00 0d cb 1e
16908372[0x1020054]: device_info: 00 00 08 00 00 00 00 01 00 01 01 00 00 00 00 01
16908372[0x1020054]: Album Title: Roxy Music
16908372[0x1020054]: Disc Version: 01.20
16908372[0x1020054]: config: 00 00 00 0c 00 00 00 10 ff 41 01 04 00 00 00 00
16908372[0x1020054]: config: 00 00 00 00 00 00 00 00 00 00 00 00 00 00 00 00
16908372[0x1020054]: config: 00 00 00 00 00 00 00 00 00 00 00 00 00 00 00 00
16908372[0x1020054]: config: 00 00 00 00 00 00 00 00 00 00 00 00 00 00 00 00
16908372[0x1020054]: device_info: 75 6e 6e 61 6d 65 5c d0 80 00 00 00 00 53 a0 00
16908372[0x1020054]: device_info: 80 00 00 00 10 13 de 70 80 00 00 00 00 5e 1c 00
16908372[0x1020054]: device_info: 00 00 00 00 00 00 00 00 00 00 00 00 00 0d cb 1e
16908372[0x1020054]: device_info: 00 00 08 00 00 00 00 01 00 01 01 00 00 00 00 01
16908372[0x1020054]: succeeded. raw_spu number is 0
16908372[0x1020054]: succeeded. entry d0
16908372[0x1020054]: Establishing the interrupt tag on the interrupt PPU thread.
16908372[0x1020054]: ioctl_report_key1[45042b01] 0
16908372[0x1020054]: sac_exec_generate_key 0 c9 0
16908372[0x1020054]: ioctl_send_key[2] c9 0
16908372[0x1020054]: ioctl_report_key[2] c8 0
16908372[0x1020054]: sac_exec_validate_key_1[0]
16908372[0x1020054]: sac_exec_generate_key_2[ae] 0
16908372[0x1020054]: ioctl_send_key[3] ae 0
16908372[0x1020054]: ioctl_report_key[3] b0 0
16908372[0x1020054]: sac_exec_validate_key_2[0]
16908372[0x1020054]: ioctl_report_key[4] 30 0
16908372[0x1020054]: sac_exec_validate_key_3[0]
16908372[0x1020054]: ioctl_report_finish [0xff] 0
16908372[0x1020054]: Queuing raw: /dev_usb000/Roxy Music.iso, start_lsn: 0, length_lsn: 903966
16908372[0x1020054]: disc ejected..
16908372[0x1020054]: config: 00 00 00 0c 00 00 00 00 ff 41 00 04 00 00 00 00
16908372[0x1020054]: config: 00 00 00 00 00 00 00 00 00 00 00 00 00 00 00 00
16908372[0x1020054]: config: 00 00 00 00 00 00 00 00 00 00 00 00 00 00 00 00
16908372[0x1020054]: config: 00 00 00 00 00 00 00 00 00 00 00 00 00 00 00 00
16908372[0x1020054]: device_info: 75 6e 6e 61 6d 65 5c d0 80 00 00 00 00 53 a0 00
16908372[0x1020054]: device_info: 80 00 00 00 10 13 de 70 80 00 00 00 00 5e 1c 00
16908372[0x1020054]: device_info: 00 00 00 00 00 00 00 00 00 00 00 00 00 0d cb 1e
16908372[0x1020054]: device_info: 00 00 08 00 00 00 00 01 00 01 01 00 00 00 00 01

foobar2000 1.3.13 / Замер динамического диапазона (DR) 1.1.1
Дата отчёта: 2016-12-12 18:21:52

––––––––––––––––––––––––––––––––––––––––
Анализ: Roxy Music / Roxy Music
––––––––––––––––––––––––––––––––––––––––

DR Пики RMS Продолжительность трека
––––––––––––––––––––––––––––––––––––––––
DR12 -4.16 дБ -18.31 дБ 5:15 01-Re-Make/Re-Model
DR11 -5.12 дБ -20.03 дБ 4:23 02-Ladytron
DR12 -5.07 дБ -20.29 дБ 6:37 03-If There Is Something
DR13 -5.61 дБ -21.55 дБ 4:33 04-2 H.B.
DR13 -4.72 дБ -22.88 дБ 5:47 05-The Bob (Medley)
DR13 -7.45 дБ -23.68 дБ 3:07 06-Chance Meeting
DR12 -5.36 дБ -20.28 дБ 3:52 07-Would You Believe?
DR14 -5.04 дБ -25.08 дБ 7:03 08-Sea Breezes
DR14 -7.42 дБ -25.22 дБ 2:06 09-Bitters End
––––––––––––––––––––––––––––––––––––––––

Количество треков: 9
Реальные значения DR: DR13

Частота: 2822400 Гц / Частота PCM: 44100 Гц
Каналов: 2
Разрядность: 24
Битрейт: 5645 кбит/с
Кодек: DSD64
================================================================================

Thanks to the original customer
Download Links:
NITROFLARE