Rush - Permanent Waves (40th Anniversary) (1980/2020) [Official Digital Download 24/96]

Posted By: pyatak
Rush - Permanent Waves (40th Anniversary) (1980/2020) [Official Digital Download 24/96]

Rush - Permanent Waves (40th Anniversary) (1980/2020) [Official Digital Download 24/96]
FLAC (tracks) 24-bit/96 kHz | Front Cover | Time - 01:59:24 minutes | 2.48 GB
Rock | Label: Mercury (Universal Music), Official Digital Download

Celebrating 40 years of Rush's Permanent Waves, deemed the poignant moment the band reinvented themselves and their sound. The 3LP Deluxe Edition features original vinyl packaging with a newly designed gatefold jacket for the two discs of live bonus tracks (from the 1980 World Tour). With a 20-page booklet of reimagined artwork by original designer Hugh Syme & unreleased band archive photos. Housed in a slipcase. Features hits like "The Spirit Of Radio" and the cinematic "Jacob's Ladder".

TRACKLIST

1. Rush - The Spirit Of Radio
2. Rush - Freewill
3. Rush - Jacob's Ladder
4. Rush - Entre Nous
5. Rush - Different Strings
6. Rush - Natural Science
7. Rush - Beneath, Between & Behind (Live in Manchester)
8. Rush - By-Tor & The Snow Dog (Live in London)
9. Rush - Xanadu (Live in London)
10. Rush - The Spirit Of Radio (Live in Manchester)
11. Rush - Natural Science (Live in Manchester)
12. Rush - A Passage to Bangkok (Live in Manchester)
13. Rush - The Trees (Live in Manchester)
14. Rush - Cygnus X-1 (Live in London)
15. Rush - Cygnus X-1: Book II Hemispheres (Live in London)
16. Rush - Closer To The Heart (Live in Manchester)
17. Rush - Jacob's Ladder (Live in Missouri)
18. Rush - Freewill (Live in London)

foobar2000 1.3.16 / Dynamic Range Meter 1.1.1
log date: 2020-05-29 04:41:03

––––––––––––––––––––––––––––––––––––––––
Analyzed: Rush / Permanent Waves
––––––––––––––––––––––––––––––––––––––––

DR Peak RMS Duration Track
––––––––––––––––––––––––––––––––––––––––
DR12 -1.42 dB -14.70 dB 5:00 01-The Spirit Of Radio
DR12 -1.36 dB -15.03 dB 5:24 02-Freewill
DR12 -0.46 dB -16.28 dB 7:29 03-Jacob's Ladder
DR12 -3.51 dB -17.35 dB 4:38 04-Entre Nous
DR14 -1.68 dB -19.98 dB 3:50 05-Different Strings
DR13 -0.21 dB -17.13 dB 9:21 06-Natural Science
DR10 -2.37 dB -13.41 dB 2:30 07-Beneath, Between & Behind (Live in Manchester)
DR10 -2.37 dB -13.62 dB 5:52 08-By-Tor & The Snow Dog (Live in London)
DR10 -2.37 dB -14.11 dB 12:16 09-Xanadu (Live in London)
DR8 -2.37 dB -11.76 dB 5:08 10-The Spirit Of Radio (Live in Manchester)
DR9 -2.37 dB -13.05 dB 8:46 11-Natural Science (Live in Manchester)
DR10 -2.37 dB -14.10 dB 3:45 12-A Passage to Bangkok (Live in Manchester)
DR9 -2.37 dB -14.18 dB 5:28 13-The Trees (Live in Manchester)
DR10 -2.37 dB -15.08 dB 8:05 14-Cygnus X-1 (Live in London)
DR11 -2.37 dB -16.05 dB 14:45 15-Cygnus X-1: Book II Hemispheres (Live in London)
DR9 -2.37 dB -13.86 dB 3:26 16-Closer To The Heart (Live in Manchester)
DR10 -2.37 dB -14.33 dB 7:38 17-Jacob's Ladder (Live in Missouri)
DR11 -2.37 dB -15.09 dB 5:46 18-Freewill (Live in London)
––––––––––––––––––––––––––––––––––––––––

Number of tracks: 18
Official DR value: DR11

Samplerate: 96000 Hz
Channels: 2
Bits per sample: 24
Bitrate: 3077 kbps
Codec: FLAC
================================================================================



Thanks to the Original customer.