Tags
Language
Tags

Sam Cooke - Tribute To The Lady (1959/2021) [Official Digital Download 24/96]

Posted By: pyatak
Sam Cooke - Tribute To The Lady (1959/2021) [Official Digital Download 24/96]

Sam Cooke - Tribute To The Lady (1959/2021) [Official Digital Download 24/96]
FLAC (tracks) 24-bit/96 kHz | Front Cover | Time - 32:33 minutes | 540 MB
Jazz | Label: Keen, Official Digital Download

Tribute to the Lady is the third studio album by American singer-songwriter Sam Cooke, released in 1959. It was recorded in tribute to jazz vocalist Billie Holiday, who died later that year. The backing band is the René Hall Orchestra.

TRACKLIST

1. Sam Cooke - God Bless The Child (Remastered)
2. Sam Cooke - She's Funny That Way (Remastered)
3. Sam Cooke - I've Got A Right To Sing The Blues (Remastered)
4. Sam Cooke - Good Morning, Heartache (Remastered)
5. Sam Cooke - Ain't Nobody's Bizness (If I Do) (Remastered)
6. Sam Cooke - Comes Love (Remastered)
7. Sam Cooke - Lover Girl (Remastered)
8. Sam Cooke - Let's Call The Whole Thing Off (Remastered)
9. Sam Cooke - Lover Come Back To Me (Remastered)
10. Sam Cooke - Solitude (Remastered)
11. Sam Cooke - They Can't Take That Away From Me (Remastered)
12. Sam Cooke - Crazy In Love With You (Remastered)
13. Sam Cooke - Summertime - Part 2 (Remastered)
14. Sam Cooke - There, I've Said It Again (Remastered)

foobar2000 1.6.2 / Dynamic Range Meter 1.1.1
log date: 2021-08-01 08:38:52

––––––––––––––––––––––––––––––––––––––––
Analyzed: Sam Cooke / Tribute To The Lady
––––––––––––––––––––––––––––––––––––––––

DR Peak RMS Duration Track
––––––––––––––––––––––––––––––––––––––––
DR8 -0.27 dB -10.60 dB 2:31 01-God Bless The Child (Remastered)
DR8 -0.35 dB -11.77 dB 1:51 02-She's Funny That Way (Remastered)
DR10 -0.24 dB -11.55 dB 2:34 03-I've Got A Right To Sing The Blues (Remastered)
––––––––––––––––––––––––––––––––––––––––

Number of tracks: 3
Official DR value: DR9

Samplerate: 96000 Hz
Channels: 2
Bits per sample: 24
Bitrate: 2540 kbps
Codec: FLAC
================================================================================

foobar2000 1.6.2 / Dynamic Range Meter 1.1.1
log date: 2021-08-01 08:41:06

––––––––––––––––––––––––––––––––––––––––
Analyzed: Sam Cooke / Tribute To The Lady
––––––––––––––––––––––––––––––––––––––––

DR Peak RMS Duration Track
––––––––––––––––––––––––––––––––––––––––
DR11 0.00 dB -12.95 dB 2:27 05-Ain't Nobody's Bizness (If I Do) (Remastered)
DR9 -0.23 dB -10.98 dB 2:24 06-Comes Love (Remastered)
DR12 -0.05 dB -15.00 dB 2:28 07-Lover Girl (Remastered)
DR10 0.00 dB -11.94 dB 2:21 08-Let's Call The Whole Thing Off (Remastered)
DR9 -0.36 dB -10.86 dB 2:12 09-Lover Come Back To Me (Remastered)
DR8 -0.43 dB -12.19 dB 2:19 10-Solitude (Remastered)
DR9 -0.10 dB -11.63 dB 2:32 11-They Can't Take That Away From Me (Remastered)
DR10 -0.10 dB -12.66 dB 2:36 12-Crazy In Love With You (Remastered)
DR7 -0.48 dB -9.09 dB 2:22 13-Summertime - Part 2 (Remastered)
DR11 -0.02 dB -12.76 dB 1:58 14-There, I've Said It Again (Remastered)
––––––––––––––––––––––––––––––––––––––––

Number of tracks: 10
Official DR value: DR10

Samplerate: 96000 Hz
Channels: 2
Bits per sample: 24
Bitrate: 1888 kbps
Codec: FLAC
================================================================================



Thanks to the Original customer.