Tags
Language
Tags

Sarah Vaughan - That Sassy Young Sassy! 1949-1953 (2021) [Official Digital Download 24/96]

Posted By: pyatak
Sarah Vaughan - That Sassy Young Sassy! 1949-1953 (2021) [Official Digital Download 24/96]

Sarah Vaughan - That Sassy Young Sassy! 1949-1953 (2021) [Official Digital Download 24/96]
FLAC (tracks) 24-bit/96 kHz | Front Cover | Time - 83:37 minutes | 0,99 GB
Jazz | Label: RevOla, Official Digital Download

Sarah Lois Vaughan (March 27, 1924 – April 3, 1990) was an American jazz singer.

Nicknamed "Sassy" and "The Divine One", she won four Grammy Awards, including the Lifetime Achievement Award. She was given an NEA Jazz Masters Award in 1989. Critic Scott Yanow wrote that she had "one of the most wondrous voices of the 20th century".

TRACKLIST

01. Sarah Vaughan - Black Coffee (Remastered)
02. Sarah Vaughan - While You Are Gone (Remastered)
03. Sarah Vaughan - You Taught Me To Love Again (Remastered)
04. Sarah Vaughan - Just Friends (Remastered)
05. Sarah Vaughan - I Cried For You (Remastered)
06. Sarah Vaughan - You're Mine, You (Remastered)
07. Sarah Vaughan - I'm Crazy To Love You (Remastered)
08. Sarah Vaughan - Summertime (Remastered)
09. Sarah Vaughan - The Nearness Of You (Remastered)
10. Sarah Vaughan - Ain't Misbehavin' (Remastered)
11. Sarah Vaughan - Goodnight My Love (Remastered)
12. Sarah Vaughan - Can't Get Out Of This Mood (Remastered)
13. Sarah Vaughan - It Might As Well Be Spring (Remastered)
14. Sarah Vaughan - Mean To Me (Remastered)
15. Sarah Vaughan - Come Rain Or Come Shine (Remastered)
16. Sarah Vaughan - Nice Work If You Can Get It (Remastered)
17. Sarah Vaughan - East Of The Sun (And West Of The Moon) (Remastered)
18. Sarah Vaughan - Thinking Of You (Remastered)
19. Sarah Vaughan - Perdido (Remastered)
20. Sarah Vaughan - I'll Know (Remastered)
21. Sarah Vaughan - Deep Purple (Remastered)
22. Sarah Vaughan - My Reverie (Remastered)
23. Sarah Vaughan - After Hours (Remastered)
24. Sarah Vaughan - Pinky (Remastered)
25. Sarah Vaughan - Street Of Dreams (Remastered)
26. Sarah Vaughan - Spring Will Be A Little Late This Year (Remastered)
27. Sarah Vaughan - Blues Serenade (Remastered)
28. Sarah Vaughan - Ooh What Cha Doin' To Me (Remastered)

foobar2000 1.6.2 / Dynamic Range Meter 1.1.1
log date: 2021-07-29 19:56:17

––––––––––––––––––––––––––––––––––––––––
Analyzed: Sarah Vaughan / That Sassy Young Sassy! 1949-1953
––––––––––––––––––––––––––––––––––––––––

DR Peak RMS Duration Track
––––––––––––––––––––––––––––––––––––––––
DR15 -3.46 dB -22.45 dB 3:19 01-Black Coffee (Remastered)
DR13 -3.68 dB -19.36 dB 3:10 02-While You Are Gone (Remastered)
DR13 -0.96 dB -16.81 dB 3:19 03-You Taught Me To Love Again (Remastered)
DR11 -3.17 dB -18.25 dB 3:02 04-Just Friends (Remastered)
DR13 -2.56 dB -18.07 dB 2:27 05-I Cried For You (Remastered)
DR11 -2.52 dB -17.83 dB 3:12 06-You're Mine, You (Remastered)
DR12 -1.84 dB -17.63 dB 3:01 07-I'm Crazy To Love You (Remastered)
DR12 -3.31 dB -17.53 dB 3:18 08-Summertime (Remastered)
DR9 -3.92 dB -18.35 dB 3:22 09-The Nearness Of You (Remastered)
DR11 -1.82 dB -15.52 dB 3:02 10-Ain't Misbehavin' (Remastered)
DR11 -0.83 dB -14.84 dB 3:30 11-Goodnight My Love (Remastered)
DR12 -1.50 dB -16.02 dB 2:51 12-Can't Get Out Of This Mood (Remastered)
DR11 -3.15 dB -17.06 dB 3:13 13-It Might As Well Be Spring (Remastered)
DR9 -3.97 dB -15.58 dB 2:54 14-Mean To Me (Remastered)
DR11 -2.97 dB -17.02 dB 3:26 15-Come Rain Or Come Shine (Remastered)
DR11 -1.40 dB -15.89 dB 2:37 16-Nice Work If You Can Get It (Remastered)
DR9 -3.15 dB -15.83 dB 3:09 17-East Of The Sun (And West Of The Moon) (Remastered)
DR11 -5.40 dB -18.87 dB 3:05 18-Thinking Of You (Remastered)
DR13 -2.66 dB -17.19 dB 2:32 19-Perdido (Remastered)
DR12 -2.47 dB -18.15 dB 3:19 20-I'll Know (Remastered)
DR12 -10.05 dB -24.61 dB 3:11 21-Deep Purple (Remastered)
DR13 -7.88 dB -24.27 dB 2:36 22-My Reverie (Remastered)
DR13 -8.66 dB -24.03 dB 2:53 23-After Hours (Remastered)
DR11 -8.05 dB -22.34 dB 2:44 24-Pinky (Remastered)
DR10 -8.44 dB -21.20 dB 3:06 25-Street Of Dreams (Remastered)
DR13 -3.92 dB -21.39 dB 2:43 26-Spring Will Be A Little Late This Year (Remastered)
DR14 -1.61 dB -18.75 dB 2:39 27-Blues Serenade (Remastered)
DR13 -6.14 dB -21.00 dB 1:55 28-Ooh What Cha Doin' To Me (Remastered)
––––––––––––––––––––––––––––––––––––––––

Number of tracks: 28
Official DR value: DR12

Samplerate: 96000 Hz
Channels: 2
Bits per sample: 24
Bitrate: 1967 kbps
Codec: FLAC
================================================================================



Thanks to the Original customer.