Tags
Language
Tags

Sarah Vaughan - The Magic of Sarah Vaughan (1959/2021) [Official Digital Download 24/96]

Posted By: pyatak
Sarah Vaughan - The Magic of Sarah Vaughan (1959/2021) [Official Digital Download 24/96]

Sarah Vaughan - The Magic of Sarah Vaughan (1959/2021) [Official Digital Download 24/96]
FLAC (tracks) 24-bit/496 kHz | Front Cover | Time - 24:38 minutes | 497 MB
Jazz | Label: High Fidelity Masters, Official Digital Download

Sarah Lois Vaughan (March 27, 1924 – April 3, 1990) was an American jazz singer.

Nicknamed "Sassy" and "The Divine One", she won four Grammy Awards, including the Lifetime Achievement Award. She was given an NEA Jazz Masters Award in 1989. Critic Scott Yanow wrote that she had "one of the most wondrous voices of the 20th century".

TRACKLIST

1. Sarah Vaughan - That Old Black Magic
2. Sarah Vaughan - Careless
3. Sarah Vaughan - Separate Ways
4. Sarah Vaughan - Are You Certain
5. Sarah Vaughan - Mary Contrary
6. Sarah Vaughan - Broken Hearted Melody
7. Sarah Vaughan - I've Got the World on a String
8. Sarah Vaughan - Friendly Enemies
9. Sarah Vaughan - What's so Bad About It
10. Sarah Vaughan - Sweet Affection

foobar2000 1.6.2 / Dynamic Range Meter 1.1.1
log date: 2021-08-15 17:28:34

––––––––––––––––––––––––––––––––––––––––
Analyzed: Sarah Vaughan / The Magic of Sarah Vaughan
––––––––––––––––––––––––––––––––––––––––

DR Peak RMS Duration Track
––––––––––––––––––––––––––––––––––––––––
DR4 -0.03 dB -6.15 dB 2:56 01-That Old Black Magic
DR6 -0.03 dB -8.37 dB 2:13 02-Careless
DR6 -0.03 dB -8.20 dB 2:25 03-Separate Ways
DR7 -0.03 dB -8.84 dB 2:14 04-Are You Certain
DR8 -0.03 dB -9.54 dB 2:43 05-Mary Contrary
DR7 -0.03 dB -8.39 dB 2:24 06-Broken Hearted Melody
DR5 -0.03 dB -6.48 dB 3:15 07-I've Got the World on a String
DR6 -0.03 dB -7.51 dB 2:21 08-Friendly Enemies
DR6 -0.03 dB -7.64 dB 2:00 09-What's so Bad About It
DR7 -0.03 dB -7.76 dB 2:07 10-Sweet Affection
––––––––––––––––––––––––––––––––––––––––

Number of tracks: 10
Official DR value: DR6

Samplerate: 96000 Hz
Channels: 2
Bits per sample: 24
Bitrate: 2942 kbps
Codec: FLAC
================================================================================



Thanks to the Original customer.