Sarah Vaughan - Volume II (1973/2018) [Official Digital Download 24/96]

Posted By: pyatak
Sarah Vaughan - Volume II (1973/2018) [Official Digital Download 24/96]

Sarah Vaughan - Volume II (1973/2018) [Official Digital Download 24/96]
FLAC (tracks) 24-bit/96 kHz | Front Cover | Time - 29:15 minutes | 496 MB
Vocal Jazz | Label: Archive of Folk & Jazz Music, Official Digital Download

Sarah Lois Vaughan (March 27, 1924 – April 3, 1990) was an American jazz singer.

Nicknamed "Sassy" and "The Divine One", she won four Grammy Awards, including the Lifetime Achievement Award. She was given an NEA Jazz Masters Award in 1989. Critic Scott Yanow wrote that she had "one of the most wondrous voices of the 20th century".

TRACKLIST

1. Sarah Vaughan - It's You or No One
2. Sarah Vaughan - Tenderly
3. Sarah Vaughan - The Lords Prayer
4. Sarah Vaughan - What a Differece a Day Makes
5. Sarah Vaughan - Gentleman Friend
6. Sarah Vaughan - Motherless Child
7. Sarah Vaughan - The One I Love Belongs to Somebody Else
8. Sarah Vaughan - September Song
9. Sarah Vaughan - Time After Time
10. Sarah Vaughan - A Hundred Years from Today

foobar2000 1.6.2 / Dynamic Range Meter 1.1.1
log date: 2021-06-02 07:14:01

––––––––––––––––––––––––––––––––––––––––
Analyzed: Sarah Vaughan / Volume II
––––––––––––––––––––––––––––––––––––––––

DR Peak RMS Duration Track
––––––––––––––––––––––––––––––––––––––––
DR9 -1.91 dB -12.74 dB 3:11 01-It's You or No One
DR9 -2.16 dB -14.18 dB 2:50 02-Tenderly
DR9 -1.26 dB -12.09 dB 2:54 03-The Lords Prayer
DR10 -1.26 dB -13.37 dB 2:48 04-What a Differece a Day Makes
DR9 -1.76 dB -13.16 dB 2:32 05-Gentleman Friend
DR8 -3.79 dB -15.03 dB 2:44 06-Motherless Child
DR9 -1.52 dB -13.10 dB 3:11 07-The One I Love Belongs to Somebody Else
DR9 -1.95 dB -14.51 dB 3:03 08-September Song
DR8 -4.14 dB -15.21 dB 3:02 09-Time After Time
DR10 -1.25 dB -12.62 dB 2:57 10-A Hundred Years from Today
––––––––––––––––––––––––––––––––––––––––

Number of tracks: 10
Official DR value: DR9

Samplerate: 96000 Hz
Channels: 2
Bits per sample: 24
Bitrate: 2384 kbps
Codec: FLAC
================================================================================



Thanks to the Original customer.