Fleetwood Mac - Say You Will (2003/2014) [Official Digital Download 24/96]

Posted By: SERTiL
Fleetwood Mac - Say You Will (2003/2014) [Official Digital Download 24/96]

Fleetwood Mac - Say You Will (2003/2014)
FLAC (tracks) 24-bit/96 kHz | Time - 66:04 minutes | 1.66 GB
Studio Master, Official Digital Download | Artwork: Front Cover

Although "Say You Will" is Fleetwood Mac's first album without longtime singer/songwriter/keyboardist Christine McVie as a full participant (she appears only as a guest musician), the album nevertheless harks back to the frothy sound of 1982's "Mirage", if not the '70s L.A. studio-pop glory of "Rumors". Singer/guitarist Lindsay Buckingham's production still boasts pleasing quirks aplenty ("Red Rover," "Murrow Turning Over in His Grave"), and his trademark acoustic fingerpicking licks underpin many of the tunes in a winning way. Buckingham and Stevie Nicks share the songwriting duties, and their writing and singing styles still mesh as well as they did in their pre-Mac days as Buckingham/Nicks.

"Say You Will" manages to sound fresh without resorting to anything as embarrassing as grafting hip-hop rhythms or electronica effects onto the group's classic pop tunes, and though it all sounds far from dated, you probably wouldn't blink twice if told this was the lost, unreleased follow-up to "Mirage".

01. What's The World Coming To
02. Murrow Turning Over In His Grave
03. Illume (9-11)
04. Thrown Down
05. Miranda
06. Red Rover
07. Say You Will
08. Peacekeeper
09. Come
10. Smile At You
11. Running Through The Garden
12. Silver Girl
13. Steal Your Heart Away
14. Bleed To Love Her
15. Everybody Finds Out
16. Destiny Rules
17. Say Goodbye
18. Goodbye Baby

Lindsay Buckingham, vocals, guitar, keyboards, percussion
Stevie Nicks, vocals, keyboards
John McVie, bass
Mick Fleetwood, drums, percussion

Recorded at Cornerstone Recording Studios, Lindsey's Garage, Ocean Way Recording and The Bellagio House
Engineered by Ken Allardyce, Ken Koroshetz, Lindsey Buckingham, Mark Needham
Mixed by Chris Lord-Alge, Mark Needham
Produced by Lindsey Buckingham, Rob Cavallo, John Shanks

Digitally remastered

foobar2000 1.3.7 / Dynamic Range Meter 1.1.1
log date: 2018-01-29 15:36:59

Analyzed: Fleetwood Mac / Say You Will

DR Peak RMS Duration Track
DR5 -0.10 dB -6.45 dB 3:49 01-What's The World Coming To
DR4 -0.10 dB -6.43 dB 4:13 02-Murrow Turning Over In His Grave
DR6 -0.10 dB -8.01 dB 4:51 03-Illume (9-11)
DR6 -0.10 dB -7.65 dB 4:02 04-Thrown Down
DR5 -0.10 dB -7.05 dB 4:18 05-Miranda
DR6 -0.10 dB -9.97 dB 3:59 06-Red Rover
DR7 -0.10 dB -8.58 dB 3:49 07-Say You Will
DR6 -0.10 dB -8.09 dB 4:12 08-Peacekeeper
DR4 -0.10 dB -7.49 dB 6:00 09-Come
DR6 -0.10 dB -8.99 dB 4:33 10-Smile At You
DR4 -0.10 dB -6.21 dB 4:35 11-Running Through The Garden
DR8 -0.10 dB -9.96 dB 4:00 12-Silver Girl
DR6 -0.10 dB -7.37 dB 3:34 13-Steal Your Heart Away
DR4 -0.10 dB -6.36 dB 4:07 14-Bleed To Love Her
DR5 -0.10 dB -6.59 dB 4:29 15-Everybody Finds Out
DR5 -0.10 dB -6.67 dB 4:26 16-Destiny Rules
DR6 -0.10 dB -7.81 dB 3:26 17-Say Goodbye
DR7 -0.10 dB -10.10 dB 3:50 18-Goodbye Baby

Number of tracks: 18
Official DR value: DR6

Samplerate: 96000 Hz
Channels: 2
Bits per sample: 24
Bitrate: 2958 kbps
Codec: FLAC

Thanks to the Original customer.