Pierre Hantaï - Scarlatti 4 (2016) [Official Digital Download 24/96]

Posted By: SERTiL
Pierre Hantaï - Scarlatti 4 (2016) [Official Digital Download 24/96]

Pierre Hantaï - Scarlatti 4 (2016)
FLAC (tracks) 24-bit/96 kHz | Time - 76:31 minutes | 1.57 GB
Studio Master, Official Digital Download | Artwork: Digital Booklet

A fourth volume of Domenico Scarlatti's Sonatas from the doyen of French harpsichordists, Pierre Hantaï, of whom Gramophone said: 'an astonishing display of dexterity in which the harpsichord he uses (a 1999 copy of an anonymous Thuringian instrument of 1720) and the acoustic help in preserving total clarity. Even at maximum velocity (did Scarlatti and his pupil reach such speeds?) he manages to shape his phrases with micro-second dwellings.

It isn't only the speedy sonatas that are impressive; Kk208 exemplifies his skilful shifts to either side of the pulse in giving the lines a natural 'vocal' quality. It also illuminates Kk185, 310, 199 and 162, in the last of which it's more evident in the playful quicker 'interludes'. The irresistible disc is splendidly annotated by Hantaï and beautifully packaged.” Gramophone Classical Music Guide, 2010.

Tracklist:

Domenico Scarlatti (1685-1757)

01. Keyboard Sonata in A Major, K. 212: Allegro molto
02. Keyboard Sonata in C-Sharp Minor, K. 247: Allegro (played in D Minor)
03. Keyboard Sonata in G Major, K. 144: Cantabile
04. Keyboard Sonata in C Major, K. 133: Allegro
05. Keyboard Sonata in F Minor, K. 204: Allegro
06. Keyboard Sonata in A Major, K. 279: Andante
07. Keyboard Sonata in A Major, K. 533: Allegro assai
08. Keyboard Sonata in A Major, K. 405: Allegro
09. Keyboard Sonata in E Minor, K. 402: Andante
10. Keyboard Sonata in E Major, K. 403: Allegro
11. Keyboard Sonata in E Major, K. 381: Allegro
12. Keyboard Sonata in A Major, K. 208: Adagio e cantabile
13. Keyboard Sonata in A Major, K. 456: Allegro
14. Keyboard Sonata in A Major, K. 457: Allegro
15. Keyboard Sonata in C Minor, K. 302: Andante
16. Keyboard Sonata in G Major, K. 201: Vivo
17. Keyboard Sonata in D Major, K. 45: Allegro

Personnel:
Pierre Hantaï, harpsichord

foobar2000 1.3.7 / Dynamic Range Meter 1.1.1
log date: 2018-03-14 15:31:12

––––––––––––––––––––––––––––––––––––––––
Analyzed: Pierre Hantaï - Scarlatti 4 (2016) [Hi-Res] / Scarlatti 4
––––––––––––––––––––––––––––––––––––––––

DR Peak RMS Duration Track
––––––––––––––––––––––––––––––––––––––––
DR13 -1.66 dB -16.89 dB 3:53 01-Keyboard Sonata in A Major, K. 212: Allegro molto
DR13 -4.12 dB -18.95 dB 4:44 02-Keyboard Sonata in C-Sharp Minor, K. 247: Allegro (played in D Minor)
DR12 -7.14 dB -21.43 dB 4:49 03-Keyboard Sonata in G Major, K. 144: Cantabile
DR13 -3.31 dB -17.84 dB 3:36 04-Keyboard Sonata in C Major, K. 133: Allegro
DR13 -2.39 dB -18.06 dB 6:19 05-Keyboard Sonata in F Minor, K. 204: Allegro
DR13 -7.16 dB -21.61 dB 4:51 06-Keyboard Sonata in A Major, K. 279: Andante
DR12 -4.72 dB -18.89 dB 3:18 07-Keyboard Sonata in A Major, K. 533: Allegro assai
DR12 -4.19 dB -19.04 dB 3:12 08-Keyboard Sonata in A Major, K. 405: Allegro
DR13 -6.68 dB -21.43 dB 10:42 09-Keyboard Sonata in E Minor, K. 402: Andante
DR12 -3.81 dB -18.89 dB 3:57 10-Keyboard Sonata in E Major, K. 403: Allegro
DR12 -4.26 dB -18.70 dB 3:34 11-Keyboard Sonata in E Major, K. 381: Allegro
DR12 -7.87 dB -22.20 dB 3:34 12-Keyboard Sonata in A Major, K. 208: Adagio e cantabile
DR12 -4.55 dB -18.24 dB 3:00 13-Keyboard Sonata in A Major, K. 456: Allegro
DR13 -3.40 dB -18.20 dB 3:46 14-Keyboard Sonata in A Major, K. 457: Allegro
DR12 -7.59 dB -21.58 dB 5:44 15-Keyboard Sonata in C Minor, K. 302: Andante
DR14 -2.32 dB -17.31 dB 4:00 16-Keyboard Sonata in G Major, K. 201: Vivo
DR12 -4.24 dB -18.82 dB 3:39 17-Keyboard Sonata in D Major, K. 45: Allegro
––––––––––––––––––––––––––––––––––––––––

Number of tracks: 17
Official DR value: DR13

Samplerate: 96000 Hz
Channels: 2
Bits per sample: 24
Bitrate: 2968 kbps
Codec: FLAC
================================================================================


Thanks to the Original customer.