Gérard Poulet & Jean-Claude Vanden Eynden - Schumann: Sonatas and Romances for violin and piano (2018) [24/44]

Posted By: SERTiL
Gérard Poulet & Jean-Claude Vanden Eynden - Schumann: Sonatas and Romances for violin and piano (2018) [24/44]

Gérard Poulet & Jean-Claude Vanden Eynden - Schumann: Sonatas and Romances for violin and piano (2018)
FLAC (tracks) 24-bit/44.1 kHz | Time - 60:57 minutes | 574 MB
Studio Master, Official Digital Download | Artwork: Digital Booklet

The life and work of Robert Schumann has a dual characteristic. In immersing oneself in one or the other, we face an almost systematic duality. He himself was aware of this, appearing in both his writings and in his compositions sometimes under the guise of Eusebius, the tender, introverted dreamer, and sometimes as Florestan, the fiery, impassioned fighter. In studying his life and work, one gains the impression that the greatest lucidity and some form of madness stood side by side in him. But as one deepens one’s knowledge of him as a creator and as a man, one realises that what appears to be contradictory is in fact quite cohesive.

Tracklist:

Robert Schumann (1810 - 1856)

01. Sonata No. 1 in A Minor for piano and violin, Op. 105: I. Mit leidenschaftlichem Ausdruck
02. Sonata No. 1 in A Minor for piano and violin, Op. 105: II. Allegretto
03. Sonata No. 1 in A Minor for piano and violin, Op. 105: III. Lebhaft
04. 3 Romances for oboe (or violin, or clarinet) and piano, Op. 94: I. Nicht schnell
05. 3 Romances for oboe (or violin, or clarinet) and piano, Op. 94: II. Einfach, innig
06. 3 Romances for oboe (or violin, or clarinet) and piano, Op. 94: III. Nicht schnell
07. Sonata No. 2 in D Minor for violin and piano, Op. 121: I. Ziemlich langsam-Lebhaft
08. Sonata No. 2 in D Minor for violin and piano, Op. 121: II. Sehr lebhaft
09. Sonata No. 2 in D Minor for violin and piano, Op. 121: III. Leise, einfach
10. Sonata No. 2 in D Minor for violin and piano, Op. 121: IV. Bewegt

Personnel:
Gerard Poulet, violin
Jean Claude Vanden Eynden, piano

foobar2000 1.3.7 / Dynamic Range Meter 1.1.1
log date: 2018-03-16 15:30:27

––––––––––––––––––––––––––––––––––––––––
Analyzed: Gérard Poulet, Jean-Claude Vanden Eynden / Schumann: Sonatas and Romances for violin and piano
––––––––––––––––––––––––––––––––––––––––

DR Peak RMS Duration Track
––––––––––––––––––––––––––––––––––––––––
DR14 -1.87 dB -20.47 dB 8:15 01-Sonata No. 1 in A Minor for piano and violin, Op. 105: I. Mit leidenschaftlichem Ausdruck
DR14 -4.67 dB -24.24 dB 3:54 02-Sonata No. 1 in A Minor for piano and violin, Op. 105: II. Allegretto
DR15 -0.31 dB -19.91 dB 5:45 03-Sonata No. 1 in A Minor for piano and violin, Op. 105: III. Lebhaft
DR14 -4.42 dB -24.87 dB 3:02 04-3 Romances for oboe (or violin, or clarinet) and piano, Op. 94: I. Nicht schnell
DR13 -6.34 dB -23.60 dB 3:37 05-3 Romances for oboe (or violin, or clarinet) and piano, Op. 94: II. Einfach, innig
DR13 -5.48 dB -23.71 dB 4:07 06-3 Romances for oboe (or violin, or clarinet) and piano, Op. 94: III. Nicht schnell
DR16 -0.19 dB -19.64 dB 14:14 07-Sonata No. 2 in D Minor for violin and piano, Op. 121: I. Ziemlich langsam-Lebhaft
DR14 -0.18 dB -17.15 dB 4:24 08-Sonata No. 2 in D Minor for violin and piano, Op. 121: II. Sehr lebhaft
DR17 -2.02 dB -24.93 dB 6:03 09-Sonata No. 2 in D Minor for violin and piano, Op. 121: III. Leise, einfach
DR14 -0.18 dB -18.00 dB 7:40 10-Sonata No. 2 in D Minor for violin and piano, Op. 121: IV. Bewegt
––––––––––––––––––––––––––––––––––––––––

Number of tracks: 10
Official DR value: DR14

Samplerate: 44100 Hz
Channels: 2
Bits per sample: 24
Bitrate: 1370 kbps
Codec: FLAC
================================================================================


Thanks to the Original customer.