François Chaplin - Scriabin: Complete Mazurkas (2014) [Official Digital Download]

Posted By: SERTiL
François Chaplin - Scriabin: Complete Mazurkas (2014) [Official Digital Download]

François Chaplin - Scriabin: Complete Mazurkas (2014)
FLAC (tracks) 24-bit/48 kHz | Time - 79:31 minutes | 707 MB
Studio Master, Official Digital Download | Artwork: Digital Booklet

The 21 Mazurkas belong to those youthful works which it has been agreed upon to designate as Scriabin’s 'first period', thus referring to a composer still heavily influenced by romantic models, and Chopin in particular. Too rarely in concert, these pieces indeed possess a melodic inventiveness and charm which make them as appealing as they are accessible. By their conciseness and finely wrought style, they even figure – with the Prelude- among the finest examples of the Russian composer-pianist’s miniaturist art.

François Chaplin trained at the Paris Conservatoire (CNSM) with the Bulgarian pianist Ventsislav Yankoff, Jacqueline Robin and with Jean-Claude Pennetier. His recording of Debussy’s complete piano works has been unanimously acclaimed by the international press and has reaped many awards (Diapason d’Or, ffff Télérama, BBC Music Magazine) as was his complete Chopin Nocturnes (for Zig-Zag Territoires).

François Chaplin now appears as a soloist in many of the world’s capitals and at important festivals, including La Roque-d’Anthéron, the Chopin Festival at Paris Bagatelle, the Chopin Festival at Nohant (Rencontres Internationales), Pontlevoy, Reims (Les Flâneries Musicales), Cervantino (Mexico), Yokohama (Japan), St Petersburg, Riga, Kazakstan, etc. In chamber music, François Chaplin performs with the Talich Quartet and Voce.

Tracklist:

Alexander Nikolayevich Scriabin (1872-1915)

01. 10 Mazurkas, Op. 3: No. 1 in B Minor (Tempo giusto)
02. 10 Mazurkas, Op. 3: No. 2 in F-Sharp Minor (Allegretto non tanto)
03. 10 Mazurkas, Op. 3: No. 3 in G Minor (Allegretto)
04. 10 Mazurkas, Op. 3: No. 4 in E Major (Moderato)
05. 10 Mazurkas, Op. 3: No. 5 in D-Sharp Minor (Doloroso)
06. 10 Mazurkas, Op. 3: No. 6 in C-Sharp Minor (Scherzando)
07. 10 Mazurkas, Op. 3: No. 7 in E Minor (Con passione)
08. 10 Mazurkas, Op. 3: No. 8 in B-Flat Minor (Con moto)
09. 10 Mazurkas, Op. 3: No. 9 in G-Sharp Minor
10. 10 Mazurkas, Op. 3: No. 10 in E-Flat Minor (Sotto voce)
11. 9 Mazurkas, Op. 25: No. 1 in F Minor (Allegro)
12. 9 Mazurkas, Op. 25: No. 2 in C Major (Allegretto)
13. 9 Mazurkas, Op. 25: No. 3 in E Minor (Lento)
14. 9 Mazurkas, Op. 25: No. 4 in E Major (Vivo)
15. 9 Mazurkas, Op. 25: No. 5 in C-Sharp Minor (Agitato)
16. 9 Mazurkas, Op. 25: No. 6 in F-Sharp Major (Allegretto)
17. 9 Mazurkas, Op. 25: No. 7 in F-Sharp Minor (Moderato)
18. 9 Mazurkas, Op. 25: No. 8 in B Major (Allegretto)
19. 9 Mazurkas, Op. 25: No. 9 in E-Flat Minor (Mesto)
20. 2 Mazurkas, Op. 40: No. 1 in D-Flat Major (Allegro)
21. 2 Mazurkas, Op. 40: No. 2 in F-Sharp Major (Piacevole)
22. Etudes, Op. 8: No. 11 in B-Flat Minor
23. Etudes, Op. 8: No. 12 in D-Sharp Minor

Personnel:
François Chaplin (piano)

foobar2000 1.3.7 / Dynamic Range Meter 1.1.1
log date: 2018-04-09 21:39:04

––––––––––––––––––––––––––––––––––––––––
Analyzed: François Chaplin / Scriabin: Complete Mazurkas
––––––––––––––––––––––––––––––––––––––––

DR Peak RMS Duration Track
––––––––––––––––––––––––––––––––––––––––
DR12 -0.10 dB -16.72 dB 5:04 01-10 Mazurkas, Op. 3: No. 1 in B Minor (Tempo giusto)
DR11 -3.39 dB -19.80 dB 2:08 02-10 Mazurkas, Op. 3: No. 2 in F-Sharp Minor (Allegretto non tanto)
DR11 -1.66 dB -18.82 dB 1:48 03-10 Mazurkas, Op. 3: No. 3 in G Minor (Allegretto)
DR13 -0.10 dB -17.68 dB 4:38 04-10 Mazurkas, Op. 3: No. 4 in E Major (Moderato)
DR12 -0.10 dB -18.72 dB 4:25 05-10 Mazurkas, Op. 3: No. 5 in D-Sharp Minor (Doloroso)
DR13 -0.97 dB -19.08 dB 2:28 06-10 Mazurkas, Op. 3: No. 6 in C-Sharp Minor (Scherzando)
DR11 -1.26 dB -16.47 dB 3:52 07-10 Mazurkas, Op. 3: No. 7 in E Minor (Con passione)
DR12 -2.55 dB -18.32 dB 3:07 08-10 Mazurkas, Op. 3: No. 8 in B-Flat Minor (Con moto)
DR11 -0.10 dB -16.93 dB 3:09 09-10 Mazurkas, Op. 3: No. 9 in G-Sharp Minor
DR14 -0.10 dB -18.91 dB 6:50 10-10 Mazurkas, Op. 3: No. 10 in E-Flat Minor (Sotto voce)
DR12 -0.10 dB -15.36 dB 3:40 11-9 Mazurkas, Op. 25: No. 1 in F Minor (Allegro)
DR12 -2.92 dB -19.61 dB 3:12 12-9 Mazurkas, Op. 25: No. 2 in C Major (Allegretto)
DR15 -3.01 dB -23.09 dB 2:39 13-9 Mazurkas, Op. 25: No. 3 in E Minor (Lento)
DR12 -0.10 dB -18.67 dB 4:32 14-9 Mazurkas, Op. 25: No. 4 in E Major (Vivo)
DR11 -0.10 dB -16.37 dB 3:50 15-9 Mazurkas, Op. 25: No. 5 in C-Sharp Minor (Agitato)
DR11 -0.10 dB -17.45 dB 3:12 16-9 Mazurkas, Op. 25: No. 6 in F-Sharp Major (Allegretto)
DR13 -0.10 dB -17.73 dB 4:44 17-9 Mazurkas, Op. 25: No. 7 in F-Sharp Minor (Moderato)
DR12 -1.55 dB -19.80 dB 2:39 18-9 Mazurkas, Op. 25: No. 8 in B Major (Allegretto)
DR11 -2.00 dB -19.78 dB 3:36 19-9 Mazurkas, Op. 25: No. 9 in E-Flat Minor (Mesto)
DR12 -1.38 dB -19.60 dB 2:19 20-2 Mazurkas, Op. 40: No. 1 in D-Flat Major (Allegro)
DR10 -3.72 dB -20.53 dB 1:28 21-2 Mazurkas, Op. 40: No. 2 in F-Sharp Major (Piacevole)
DR12 -1.88 dB -19.37 dB 3:52 22-Etudes, Op. 8: No. 11 in B-Flat Minor
DR10 -0.84 dB -13.49 dB 2:30 23-Etudes, Op. 8: No. 12 in D-Sharp Minor
––––––––––––––––––––––––––––––––––––––––

Number of tracks: 23
Official DR value: DR12

Samplerate: 48000 Hz
Channels: 2
Bits per sample: 24
Bitrate: 1310 kbps
Codec: FLAC
================================================================================


Thanks to the Original customer.