SebastiAn - Thirst (2019) [Official Digital Download]

Posted By: Pisulik
SebastiAn - Thirst (2019) [Official Digital Download]

SebastiAn - Thirst (2019)
FLAC (tracks) 24-bit/44.1-48 kHz | Time - 66:42 minutes | 795 MB
Studio Master, Official Digital Download | Artwork: Front cover

'Thirst': SebastiAn, Act II. It only took eight years of waiting for one of the most unique artists to finally deliver a new dose of contemporary electro pyrotechnics and a worthy successor to the smashing 'Total'. During those eight years, SebastiAn successfully completed a 360° turn. Plus, it's been eight years of putting his talent to the good use of others (Frank Ocean, Kavinsky, Charlotte Gainsbourg) to help him get to where he wants to be today. From European electro to American R&B via classic pop, 'Thirst' sets ablaze all genres. The energy from such contrasts brought this project to life, provoking SebastiAn to call upon an impressive list of artists to feature on Thirst (Syd from The Internet, Mayer Hawthorne, Charlotte Gainsbourg, Allan Kingdom, Sevdaliza, Cautious Clay, Sunni Colòn, Sparks, Gallant and Loota). 'From Ed Banger to Jean-Louis Costes and Katerine, or Frank Ocean to Charlotte Gainsbourg, my music has always looked to build bridges,' outlines SebastiAn.

Tracklist:

01. Thirst (02:19)
02. Doorman (feat. Syd) (03:49)
03. Movement (04:26)
04. Better Now (feat. Mayer Hawthorne) (05:41)
05. Pleasant (feat. Charlotte Gainsbourg) (03:40)
06. Yebo (feat. Allan Kingdom) (03:52)
07. Sev (feat. Sevdaliza) (01:57)
08. スィート Sweet (feat. Loota) (02:56)
09. Sober (feat. Bakar) (03:21)
10. Time to Talk (feat. Sunni Colon) (02:36)
11. Beograd (05:42)
12. Handcuffed to a Parking Meter (feat. Sparks) (04:29)
13. Devoyka (03:43)
14. Run for Me (feat. Gallant) (06:14)
15. Better Now (Edit) (feat. Mayer Hawthorne) (04:32)
16. Beograd (Edit) (03:36)
17. Run for Me (Edit) (feat. Gallant) (03:49)

foobar2000 1.3.7 / Dynamic Range Meter 1.1.1
log date: 2019-11-08 13:07:57

––––––––––––––––––––––––––––––––––––––––
Analyzed: SebastiAn / Thirst
––––––––––––––––––––––––––––––––––––––––

DR Peak RMS Duration Track
––––––––––––––––––––––––––––––––––––––––
DR4 -0.10 dB -6.36 dB 2:19 01-Thirst
DR7 -0.10 dB -9.02 dB 3:49 02-Doorman
DR6 -0.10 dB -7.91 dB 4:27 03-Movement
DR5 -0.10 dB -8.38 dB 5:41 04-Better Now
DR5 0.00 dB -7.03 dB 3:41 05-Pleasant
DR6 -0.10 dB -7.79 dB 3:53 06-Yebo
DR6 -0.10 dB -7.67 dB 1:58 07-Sev
DR7 0.00 dB -8.79 dB 2:57 08-スィート Sweet
DR6 -0.10 dB -7.75 dB 3:21 09-Sober
DR7 -0.10 dB -8.65 dB 2:37 10-Time to Talk
DR7 0.00 dB -8.71 dB 5:43 11-Beograd
DR6 -0.10 dB -8.04 dB 4:29 12-Handcuffed to a Parking Meter
DR7 0.00 dB -9.87 dB 3:44 13-Devoyka
DR4 0.00 dB -7.58 dB 6:15 14-Run for Me
DR4 -0.10 dB -6.33 dB 4:32 15-Better Now (Edit)
DR7 -0.01 dB -8.51 dB 3:37 16-Beograd (Edit)
––––––––––––––––––––––––––––––––––––––––

Number of tracks: 16
Official DR value: DR6

Samplerate: 44100 Hz
Channels: 2
Bits per sample: 24
Bitrate: 1646 kbps
Codec: FLAC
================================================================================

––––––––––––––––––––––––––––––––––––––––
Statistics for: 17-Run for Me (Edit)
Number of samples: 11039469
Duration: 3:50
––––––––––––––––––––––––––––––––––––––––

Left Right

Peak Value: 0.00 dB –- 0.00 dB
Avg RMS: -7.75 dB –- -8.00 dB
DR channel: 4.50 dB –- 4.67 dB
––––––––––––––––––––––––––––––––––––––––

Official DR Value: DR5

Samplerate: 48000 Hz
Channels: 2
Bits per sample: 24
Bitrate: 1633 kbps
Codec: FLAC
================================================================================


All thanks go to the original releaser