Sebastian Bohren - Mendelssohn & Britten: Violin Concertos (2019) [Official Digital Download 24/96]

Posted By: SERTiL
Sebastian Bohren - Mendelssohn & Britten: Violin Concertos (2019) [Official Digital Download 24/96]

Sebastian Bohren - Mendelssohn & Britten: Violin Concertos (2019)
FLAC (tracks) 24-bit/96 kHz | Time - 70:58 minutes | 1.25 GB
Studio Master, Official Digital Download | Artwork: Digital Booklet

After the go-ahead of his recording of the complete Sonatas and Partitas for solo violin by Bach, Swiss violinist Sebastian Bohren now presents a unique combination of masterpieces for violin and orchestra. Besides the famous Violin Concerto in E minor by Mendelssohn (one of the most famous violin concertos par excellence), Sebastian has recorded Benjamin Britten's Violin Concerto, Op. 15. This work was written from 1938 to 1939 and dedicated to Henry Boys, Britten had to simplify the solo part for it's dedicatee, but later restored it's technical pyrotechnics. The program is completed by Tchaikovsky's "Sérénade Mélancolique", It was the composer's first work for violin and orchestra, and was written immediately after completing the Piano Concerto No. 1 in B-flat minor.

Tracklist:
1. Violin Concerto in E Minor, Op. 64: I. Allegro molto appassionato 13:09
2. Violin Concerto in E Minor, Op. 64: II. Andante 08:41
3. Violin Concerto in E Minor, Op. 64: III. Allegro molto vivace 06:22
4. Violin Concerto in D Minor, Op. 15: I. Moderato con moto - Agitato - Tempo primo 10:07
5. Violin Concerto in D Minor, Op. 15: II. Vivace - Animando - Largamente - Cadenza 08:50
6. Violin Concerto in D Minor, Op. 15: III. Passacaglia - Andante lento (Un poco meno mosso) 14:28
7. Sérénade mélancolique, Op. 26 08:55

Personnel:
Sebastian Bohren, violin
Royal Liverpool Philharmonic Orchestra
Andrew Litton, conductor

foobar2000 1.3.7 / Dynamic Range Meter 1.1.1
log date: 2019-01-11 20:20:57

––––––––––––––––––––––––––––––––––––––––
Analyzed: Sebastian Bohren / Mendelssohn & Britten: Violin Concertos
––––––––––––––––––––––––––––––––––––––––

DR Peak RMS Duration Track
––––––––––––––––––––––––––––––––––––––––
DR14 -2.15 dB -22.07 dB 13:14 01-Violin Concerto in E Minor, Op. 64 - I. Allegro molto appassionato
DR15 -3.43 dB -25.65 dB 8:41 02-Violin Concerto in E Minor, Op. 64 - II. Andante
DR13 -2.13 dB -21.30 dB 6:29 03-Violin Concerto in E Minor, Op. 64 - III. Allegro molto vivace
DR15 -0.20 dB -20.77 dB 10:11 04-Violin Concerto in D Minor, Op. 15 - I. Moderato con moto - Agitato - Tempo primo
DR14 -0.20 dB -20.19 dB 8:51 05-Violin Concerto in D Minor, Op. 15 - II. Vivace - Animando - Largamente - Cadenza
DR14 -0.20 dB -20.03 dB 14:39 06-Violin Concerto in D Minor, Op. 15 - III. Passacaglia - Andante lento (Un poco meno mosso)
DR13 -6.09 dB -25.03 dB 8:55 07-Serenade melancolique, Op. 26
––––––––––––––––––––––––––––––––––––––––

Number of tracks: 7
Official DR value: DR14

Samplerate: 96000 Hz
Channels: 2
Bits per sample: 24
Bitrate: 2455 kbps
Codec: FLAC
================================================================================


Thanks to the Original customer.