Sparks - A Steady Drip, Drip, Drip (2020) [Official Digital Download 24/88-96]

Posted By: pyatak
Sparks - A Steady Drip, Drip, Drip (2020) [Official Digital Download 24/88-96]

Sparks - A Steady Drip, Drip, Drip (2020) [Official Digital Download 24/88-96]
FLAC (tracks) 24-bit/88.2-96 kHz | Front Cover | Time - 54:25 minutes | 1,23 GB
Pop Rock | Label: Bmg Rights Management (Warner), Official Digital Download

The legendary Sparks namely the brothers Ron and Russell Mael have announced the release of their 24th studio album: a Steady Drip, Drip, Drip will be released on May 15, 2020 via BMG. In October, the Duo embarks on a small European Tour, on which the Sparks can also be seen in Germany on 15 October. Since 1974 she has been playing with her Megahit This Town Ain't Big enough for Both of us from her 3rd album. Studio album Kimono My House having stormed the Charts, heads and radio waves for the first time, the two eternally young pop pioneers have set themselves a unique monument with their albums and their live shows. With a Steady Drip, Drip, Drip, the US Duo presents the successor of their critically acclaimed 2017 album Hippopotamus, with which the Sparks returned to the Top 10 at the time and which has been celebrated not only as one of the best albums of the year, but also as a creative highlight of the Formation so far. evor the Sparks 2021 embark on an extensive world tour together with their Band, the brothers can be experienced in October 2020 on a small European Tour.

TRACKLIST

1. Sparks - All That
2. Sparks - I'm Toast
3. Sparks - Lawnmower
4. Sparks - Sainthood Is Not in Your Future
5. Sparks - Pacific Standard Time
6. Sparks - Stravinsky's Only Hit
7. Sparks - Left Out in the Cold
8. Sparks - Self-Effacing
9. Sparks - One for the Ages
10. Sparks - Onomato Pia
11. Sparks - iPhone
12. Sparks - The Existential Threat
13. Sparks - Nothing Travels Faster Than the Speed of Light
14. Sparks - Please Don't Fuck Up My World

foobar2000 1.3.16 / Dynamic Range Meter 1.1.1
log date: 2020-05-16 19:48:01

––––––––––––––––––––––––––––––––––––––––
Analyzed: Sparks / A Steady Drip, Drip, Drip
––––––––––––––––––––––––––––––––––––––––

DR Peak RMS Duration Track
––––––––––––––––––––––––––––––––––––––––
DR6 0.00 dB -8.92 dB 4:44 01-All That
DR6 0.00 dB -8.50 dB 3:32 02-I'm Toast
DR6 -0.36 dB -8.52 dB 3:39 03-Lawnmower
DR5 -0.42 dB -7.87 dB 4:13 04-Sainthood Is Not in Your Future
DR6 -0.43 dB -9.10 dB 4:23 05-Pacific Standard Time
DR6 -0.24 dB -8.10 dB 4:10 06-Stravinsky's Only Hit
DR6 -0.46 dB -8.68 dB 4:18 07-Left Out in the Cold
DR9 -0.10 dB -10.70 dB 3:42 08-Self-Effacing
DR7 -0.60 dB -9.85 dB 3:49 09-One for the Ages
DR7 -0.10 dB -9.31 dB 2:52 10-Onomato Pia
DR7 -0.96 dB -9.85 dB 4:01 11-iPhone
DR9 -0.50 dB -10.89 dB 3:24 12-The Existential Threat
DR8 -0.71 dB -10.69 dB 4:25 13-Nothing Travels Faster Than the Speed of Light
––––––––––––––––––––––––––––––––––––––––

Number of tracks: 13
Official DR value: DR7

Samplerate: 88200 Hz
Channels: 2
Bits per sample: 24
Bitrate: 3174 kbps
Codec: FLAC
================================================================================

––––––––––––––––––––––––––––––––––––––––
Statistics for: 14-Please Don't Fuck Up My World
Number of samples: 18718526
Duration: 3:15
––––––––––––––––––––––––––––––––––––––––

Left Right

Peak Value: -0.63 dB –- -0.93 dB
Avg RMS: -9.29 dB –- -8.94 dB
DR channel: 5.53 dB –- 5.04 dB
––––––––––––––––––––––––––––––––––––––––

Official DR Value: DR5

Samplerate: 96000 Hz
Channels: 2
Bits per sample: 24
Bitrate: 3186 kbps
Codec: FLAC
================================================================================


Thanks to the Original customer.