Steve Coleman - Live at the Village Vanguard, Vol. 1 (The Embedded Sets) (2018) [Official Digital Download 24/96]

Posted By: SERTiL
Steve Coleman - Live at the Village Vanguard, Vol. 1 (The Embedded Sets) (2018) [Official Digital Download 24/96]

Steve Coleman - Live at the Village Vanguard, Vol. 1 (The Embedded Sets) (2018)
FLAC (tracks) 24-bit/96 kHz | Time - 152:24 minutes | 3.18 GB
Studio Master, Official Digital Download | Artwork: Front Cover

Alto saxophonist Steve Coleman’s Live at the Village Vanguard, Vol. I (The Embedded Sets) is his first live release in over 15 years. It captures his band Five Elements in two joyous sets at the historic New York venue where some of the most famous jazz recording from the likes of John Coltrane, Sonny Rollins, and Bill Evans have been made. Coleman’s personal history is tied deeply with the club: One of the main reasons he moved to New York City from Chicago was for the opportunity to play in the Thad Jones/Mel Lewis Orchestra, of which he was a member from 1978 to 1980. After playing there with singer Abbey Lincoln in 1984, there followed a hiatus of over 30 years before he was invited to perform at the club as a leader in 2015. Since then, he has led his band Five Elements at the Vanguard every year, including these two sets recorded in May, 2017.

Unlike his two most recent releases, Morphogenesis (NPR Critics Poll #2 album of 2017) and Synovial Joints (New York Times #1 jazz album of 2015), both of which are highly orchestrated, Coleman’s recent goal has been to perform as spontaneously as possible, often completely extemporaneously, and yet still retain form and structure. Interspersing the set with tracks that feature these new compositional tactics with long-time Coleman favorites, the musicians tackles Coleman’s typically intricate music with an effortless grace. The band’s mastery over the cross-hatching rhythms, tricky counterpoint and percolating groove, inspired by the magical vibe of the Village Vanguard, is captured here at its absolute peak.

Tracklist:
01. Horda
02. Djw
03. Little Girl I'll Miss You | Embedded #1
04. idHw
05. twf
06. Figit Time
07. Nfr
08. Little Girl I'll Miss You
09. Change The Guard
10. rmT | Figit Time
11. Nfr
12. idHw
13. twf
14. Horda
15. Embedded #1
16. Djw
17. rmT | 9 to 5

Personnel:
Steve Coleman - alto saxophone
Jonathan Finlayson - trumpet
Miles Okazaki - guitar
Anthony Tidd - bass
Sean Rickman - drums

foobar2000 1.3.7 / Dynamic Range Meter 1.1.1
log date: 2019-01-11 13:36:29

––––––––––––––––––––––––––––––––––––––––
Analyzed: Steve Coleman / Live at the Village Vanguard, Vol. 1 (The Embedded Sets)
––––––––––––––––––––––––––––––––––––––––

DR Peak RMS Duration Track
––––––––––––––––––––––––––––––––––––––––
DR11 -0.70 dB -13.26 dB 7:50 01-Horda
DR10 -0.60 dB -12.37 dB 6:36 02-Djw
DR13 -0.60 dB -15.77 dB 16:51 03-Little Girl I'll Miss You | Embedded #1
DR13 -0.60 dB -17.51 dB 6:46 04-idHw
DR11 -0.60 dB -12.89 dB 7:09 05-twf
DR10 -0.80 dB -13.04 dB 8:25 06-Figit Time
DR11 -0.60 dB -12.64 dB 8:21 07-Nfr
DR14 -1.49 dB -18.13 dB 7:03 08-Little Girl I'll Miss You
DR12 -0.60 dB -16.07 dB 7:02 09-Change The Guard
DR10 -0.60 dB -12.82 dB 16:35 10-rmT | Figit Time
DR10 -0.60 dB -12.47 dB 9:48 11-Nfr
DR15 -0.60 dB -19.36 dB 6:55 12-idHw
DR11 -0.60 dB -13.26 dB 7:22 13-twf
DR10 -0.70 dB -12.67 dB 6:26 14-Horda
DR12 -0.60 dB -13.94 dB 6:58 15-Embedded #1
DR11 -0.80 dB -12.63 dB 7:34 16-Djw
DR12 -0.60 dB -14.86 dB 14:53 17-rmT | 9 to 5
––––––––––––––––––––––––––––––––––––––––

Number of tracks: 17
Official DR value: DR11

Samplerate: 96000 Hz
Channels: 2
Bits per sample: 24
Bitrate: 2872 kbps
Codec: FLAC
================================================================================


Thanks to the Original customer.