Pygmalion & Raphaël Pichon - Stravaganza d'amore! The Birth of Opera at the Medici Court (2017) [24/96]

Posted By: SERTiL
Pygmalion & Raphaël Pichon - Stravaganza d'amore! The Birth of Opera at the Medici Court (2017) [24/96]

Pygmalion & Raphaël Pichon - Stravaganza d'amore! The Birth of Opera at the Medici Court (2017)
FLAC (tracks) 24-bit/96 kHz | Time - 102:26 minutes | 1.87 GB
Studio Master, Official Digital Download | Artwork: Digital booklet

Late sixteenth-century Florence was alive with theater. Seeking to achieve the perfect blend between music and poetry, intermedi (interludes) were inserted into plays. These interludes were presented with lavish visual and musical resources. After reaching an initial peak in 1589 with the intermedi composed for Bargagli's La pellegrina, the tradition survived the burgeoning genre of opera through the work of such composers as Peri, Caccini, Monteverdi and Gagliano. On this release, rather than aiming for the impossible ideal of a reconstruction, Raphaël Pichon has devised a sort of imaginary intermedi by selecting the finest gems from this repertory, featuring the figures of Apollo, Orpheus and Eurydice, and above all Cupid.

TRACKLIST

Girolamo Fantini (1600-1675)

All'imperio d'Amore
1. Toccata "La Renuccini" 01:47
2. O fortunato giorno a 30 "La Pellegrina" 03:12
3. Ineffabile ardore a 6 "Il rapimento di Cefalo" 01:07

Giulio Caccini (1551-1618)

4. O che felice giorno a voce sola 04:20
5. Ineffabile ardore a 6 "Il rapimento di Cefalo" 01:00
6. La dipartita e amara a 4 02:13
7. Ineffabile ardore a 6 "Il rapimento di Cefalo" 00:54
8. Non havea Febo ancora a voce sola 01:33
9. O Giovenil ardire a 10 "I Fabii" 02:16
10. Donne le celeste lume a 9 "Stravaganza d'Amore" 02:56
11. Dal vago e bel sereno a 6 "La Pellegrina" 05:18
12. O qual risplende a 6 "La Pellegrina" 01:36
13. Ohimè che vegg’io a 5 "La Dafne" 01:26
14. Qui di carne si sfama a 12 "La Pellegrina" 02:21

Alessandro Orologio (ca. 1550-1633)

La Favolla d'Apollo
15. Apollo affronta il serpente 01:02
16. Poi giacque estinto al fine "La Dafne" 01:09
17. O mille volte a 8 "La Pellegrina" 02:07
18. Piangete, Ninfe "La Dafne" 04:25
19. Sinfonia a 6 "La Pellegrina" 02:34
20. Un guardo, un guard’appena "La Dafne" 06:23
21. Bella ninfa fuggitiva a 5 "La Dafne" 02:26

Lorenzo Allegri (1567-1648)

22. Gagliarda a 6 "Primo ballo della Notte d’Amore" 01:16
23. Al canto, al ballo a 5 "Euridice" 02:38
24. Lassa, che di spavento "Euridice" 06:22
25. Non piango e non sospiro "Euridice" 01:55
26. Cruda morte. Sospirate aure celesti "Euridice" 04:23

Lorenzo Allegri
27. Sinfonia a 6. Spirto del Ciel "Primo ballo della Notte d’Amore" 01:21
28. Funeste piagge "Euridice" 04:39
29. Udite lagrimosi spirti d’Averno 04:19
30. Trionfi oggi pietà "Euridice" 04:06
31. Gioite al canto mio "Euridice" 01:21
32. Ma che più ? a 5 "Euridice" 01:13

Giovanni Battista Buonamente (ca. 1595-1642)

Il Ballo degli reali Amanti
33. Ballo del Granduca a 7 04:27
34. Dolcissime sirene a 6 "La Pellegrina" 01:40
35. A voi reali amanti a 15 "La Pellegrina "04:04
36. Coppia gentil a 6 "La Pellegrina" 01:10
37. O che nuovo miracolo a 5, a 3 "La Pellegrina" 05:27

PERSONNEL
Ensemble Pygmalion
Raphaël Pichon (conductor)

foobar2000 1.3.7 / Dynamic Range Meter 1.1.1
log date: 2017-09-17 14:53:29

––––––––––––––––––––––––––––––––––––––––
Analyzed: Pygmalion and Raphaël Pichon / Stravaganza d'amore! The Birth of Opera at the Medici Court (1-20)
Pygmalion, Davy Cornillot, Virgile Ancely, Maïlys Villoutreys, Luciana Mancini, Raphaël Pichon, Deborah Cachet and Zachary Wilder / Stravaganza d'amore! The Birth of Opera at the Medici Court (21)
Pygmalion, Deborah Cachet, Raphaël Pichon, Lucile Richardot, Davy Cornillot, Maïlys Villoutreys and Nicolas Brooymans / Stravaganza d'amore! The Birth of Opera at the Medici Court (22)
Pygmalion, Luciana Mancini and Raphaël Pichon / Stravaganza d'amore! The Birth of Opera at the Medici Court (23)
Pygmalion, Lucile Richardot, Raphaël Pichon and Zachary Wilder / Stravaganza d'amore! The Birth of Opera at the Medici Court (24)
Pygmalion, Maïlys Villoutreys, Lucile Richardot, Deborah Cachet, Raphaël Pichon and Zachary Wilder / Stravaganza d'amore! The Birth of Opera at the Medici Court (25)
Pygmalion, Maïlys Villoutreys, Lucile Richardot, Nicolas Brooymans, Deborah Cachet, Renaud Brès, Raphaël Pichon and Zachary Wilder / Stravaganza d'amore! The Birth of Opera at the Medici Court (26)
Pygmalion, Maïlys Villoutreys, Nicolas Brooymans, Raphaël Pichon, Deborah Cachet, Zachary Wilder, Lucile Richardot and Davy Cornillot / Stravaganza d'amore! The Birth of Opera at the Medici Court (27)
Pygmalion, Raphaël Pichon and Renato Dolcini / Stravaganza d'amore! The Birth of Opera at the Medici Court (28-29)
Pygmalion, Raphaël Pichon, Deborah Cachet, Zachary Wilder, Lucile Richardot, Davy Cornillot, Virgile Ancely and Maïlys Villoutreys / Stravaganza d'amore! The Birth of Opera at the Medici Court (30)
Pygmalion, Raphaël Pichon, Sophie Junker, Luciana Mancini and Maïlys Villoutreys / Stravaganza d'amore! The Birth of Opera at the Medici Court (31)
Pygmalion, Renato Dolcini and Raphaël Pichon / Stravaganza d'amore! The Birth of Opera at the Medici Court (32-33)
Pygmalion, Safir Behloul, Raphaël Pichon and Virgile Ancely / Stravaganza d'amore! The Birth of Opera at the Medici Court (34)
Pygmalion, Safir Behloul, Renaud Brès, Raphaël Pichon, Zachary Wilder, Davy Cornillot, Lucile Richardot and Maïlys Villoutreys / Stravaganza d'amore! The Birth of Opera at the Medici Court (35)
Pygmalion, Sophie Junker and Raphaël Pichon / Stravaganza d'amore! The Birth of Opera at the Medici Court (36)
Pygmalion, Sophie Junker, Maïlys Villoutreys, Luciana Mancini and Raphaël Pichon / Stravaganza d'amore! The Birth of Opera at the Medici Court (37)
––––––––––––––––––––––––––––––––––––––––

DR Peak RMS Duration Track
––––––––––––––––––––––––––––––––––––––––
DR11 -0.05 dB -14.88 dB 1:48 01-All'imperio d'Amore: 1. Toccata "La Renuccini"
DR11 -0.23 dB -15.48 dB 3:12 02-All'imperio d'Amore: 2. O fortunato giorno a 30 "La Pellegrina"
DR10 -4.61 dB -20.65 dB 1:07 03-All'imperio d'Amore: 3. Ineffabile ardore a 6 "Il rapimento di Cefalo"
DR10 -2.11 dB -17.25 dB 1:01 05-All'imperio d'Amore: 5. Ineffabile ardore a 6 "Il rapimento di Cefalo"
DR10 -1.51 dB -16.21 dB 2:16 09-All'imperio d'Amore: 9. O Giovenil ardire a 10 "I Fabii"
DR11 -0.79 dB -16.78 dB 2:56 10-All'imperio d'Amore: 10. Donne le celeste lume a 9 "Stravaganza d'Amore"
DR11 -2.78 dB -19.01 dB 5:19 11-La Favolla d'Apollo: 11. Dal vago e bel sereno a 6 "La Pellegrina"
DR11 -1.46 dB -14.98 dB 1:02 15-La Favolla d'Apollo: 15. Apollo affronta il serpente
DR12 -4.77 dB -20.14 dB 1:09 16-La Favolla d'Apollo: 16. Poi giacque estinto al fine "La Dafne"
DR10 0.00 dB -13.68 dB 2:07 17-La Favolla d'Apollo: 17. O mille volte a 8 "La Pellegrina"
DR10 -6.03 dB -20.23 dB 2:35 19-La Favolla d'Apollo: 19. Sinfonia a 6 "La Pellegrina"
DR12 -3.87 dB -20.76 dB 6:24 20-La Favolla d'Apollo: 20. Un guardo, un guard'appena "La Dafne"
DR11 -1.97 dB -17.65 dB 1:17 01-Le Lagrime d'Orfeo: 22. Gagliarda a 6 "Primo ballo della Notte d'Amore"
DR12 -1.58 dB -18.57 dB 2:39 02-Le Lagrime d'Orfeo: 23. Al canto, al ballo a 5 "Euridice"
DR9 -7.31 dB -19.82 dB 1:22 06-Le Lagrime d'Orfeo: 27. Sinfonia a 6. Spirto del Ciel "Primo ballo della Notte d'Amore"
DR12 -4.60 dB -20.74 dB 4:20 08-Le Lagrime d'Orfeo: 29. Udite lagrimosi spirti d'Averno
DR11 -0.66 dB -14.60 dB 1:13 11-Le Lagrime d'Orfeo: 32. Ma che più ? a 5 "Euridice"
DR11 -0.01 dB -16.79 dB 4:28 12-Il Ballo degli reali Amanti: 33. Ballo del Granduca a 7
DR11 -4.46 dB -21.46 dB 1:41 13-Il Ballo degli reali Amanti: 34. Dolcissime sirene a 6 "La Pellegrina"
DR10 -0.36 dB -16.14 dB 4:04 14-Il Ballo degli reali Amanti: 35. A voi reali amanti a 15 "La Pellegrina"
DR14 -0.19 dB -19.45 dB 4:25 18-La Favolla d'Apollo: 18. Piangete, Ninfe "La Dafne"
DR11 -0.02 dB -15.47 dB 1:26 13-La Favolla d'Apollo: 13. Ohimè che vegg'io a 5 "La Dafne"
DR14 -1.85 dB -21.71 dB 6:23 03-Le Lagrime d'Orfeo: 24. Lassa, che di spavento "Euridice"
DR10 -1.50 dB -15.74 dB 2:21 14-La Favolla d'Apollo: 14. Qui di carne si sfama a 12 "La Pellegrina"
DR13 -1.40 dB -20.75 dB 4:23 05-Le Lagrime d'Orfeo: 26. Cruda morte. Sospirate aure celesti "Euridice"
DR10 -3.47 dB -18.28 dB 1:11 15-Il Ballo degli reali Amanti: 36. Coppia gentil a 6 "La Pellegrina"
DR12 -3.82 dB -19.95 dB 1:36 12-La Favolla d'Apollo: 12. O qual risplende a 6 "La Pellegrina"
DR11 -3.31 dB -20.58 dB 1:55 04-Le Lagrime d'Orfeo: 25. Non piango e non sospiro "Euridice"
DR12 -3.93 dB -21.20 dB 4:40 07-Le Lagrime d'Orfeo: 28. Funeste piagge "Euridice"
DR9 -1.65 dB -14.28 dB 0:55 07-All'imperio d'Amore: 7. Ineffabile ardore a 6 "Il rapimento di Cefalo"
DR12 -0.02 dB -16.13 dB 5:28 16-Il Ballo degli reali Amanti: 37. O che nuovo miracolo a 5, a 3 "La Pellegrina"
DR14 -2.37 dB -19.61 dB 1:33 08-All'imperio d'Amore: 8. Non havea Febo ancora a voce sola
DR13 -2.05 dB -18.17 dB 1:21 10-Le Lagrime d'Orfeo: 31. Gioite al canto mio "Euridice"
DR12 0.00 dB -16.41 dB 4:06 09-Le Lagrime d'Orfeo: 30. Trionfi oggi pietà "Euridice"
DR13 -0.07 dB -17.95 dB 2:14 06-All'imperio d'Amore: 6. La dipartita e amara a 4
DR13 -2.30 dB -19.65 dB 4:20 04-All'imperio d'Amore: 4. O che felice giorno a voce sola
DR12 -0.08 dB -17.80 dB 2:26 21-La Favolla d'Apollo: 21. Bella ninfa fuggitiva a 5 "La Dafne"
––––––––––––––––––––––––––––––––––––––––

Number of tracks: 37
Official DR value: DR11

Samplerate: 96000 Hz
Channels: 2
Bits per sample: 24
Bitrate: 2579 kbps
Codec: FLAC
================================================================================


Thanks to the Original customer.