Tags
Language
Tags

Suzanne Vega - Solitude Standing (1987/2021) [Official Digital Download 24/96]

Posted By: pyatak
Suzanne Vega - Solitude Standing (1987/2021) [Official Digital Download 24/96]

Suzanne Vega - Solitude Standing (1987/2021) [Official Digital Download 24/96]
FLAC (tracks) 24-bit/96 kHz | Front Cover | Time - 43:54 minutes | 959 MB
Folk | Studio Master, Official Digital Download

Solitude Standing is the second studio album by American singer-songwriter Suzanne Vega, released on April 1, 1987, by A&M Records. It is the most commercially successful and critically acclaimed album of Vega's career. Many songs were written prior to 1987.

TRACKLIST

1. Suzanne Vega - Tom's Diner
2. Suzanne Vega - Luka
3. Suzanne Vega - Ironbound / Fancy Poultry
4. Suzanne Vega - In The Eye
5. Suzanne Vega - Night Vision
6. Suzanne Vega - Solitude Standing
7. Suzanne Vega - Calypso
8. Suzanne Vega - Language
9. Suzanne Vega - Gypsy
10. Suzanne Vega - Wooden Horse (Casper Hauser's Song)
11. Suzanne Vega - Tom's Diner (Reprise)

foobar2000 1.6.2 / Dynamic Range Meter 1.1.1
log date: 2021-09-26 08:10:24

––––––––––––––––––––––––––––––––––––––––
Analyzed: Suzanne Vega / Solitude Standing
––––––––––––––––––––––––––––––––––––––––

DR Peak RMS Duration Track
––––––––––––––––––––––––––––––––––––––––
DR14 -1.79 dB -19.36 dB 2:09 01-Tom's Diner
DR10 -0.40 dB -11.24 dB 3:52 02-Luka
DR12 -0.40 dB -14.50 dB 6:19 03-Ironbound / Fancy Poultry
DR10 -0.40 dB -12.69 dB 4:16 04-In The Eye
DR11 -0.42 dB -14.18 dB 2:48 05-Night Vision
DR11 -0.40 dB -12.58 dB 4:49 06-Solitude Standing
DR10 -0.40 dB -12.80 dB 4:14 07-Calypso
DR12 -0.42 dB -15.70 dB 3:57 08-Language
DR10 -0.40 dB -12.61 dB 4:04 09-Gypsy
DR9 -0.40 dB -11.50 dB 5:14 10-Wooden Horse (Casper Hauser's Song)
DR13 -0.47 dB -15.05 dB 2:40 11-Tom's Diner (Reprise)
––––––––––––––––––––––––––––––––––––––––

Number of tracks: 11
Official DR value: DR11

Samplerate: 96000 Hz
Channels: 2
Bits per sample: 24
Bitrate: 2992 kbps
Codec: FLAC
================================================================================



Thanks to the Original customer.