Tags
Language
Tags

T. Rex - 1972 (2022) [Official Digital Download]

Posted By: pyatak
T. Rex - 1972 (2022) [Official Digital Download]

T. Rex - 1972 (2022) [Official Digital Download]
FLAC (tracks) 24-bit/44.1 kHz | Front Cover | Time - 04:28:02 minutes | 2,9 GB
Rock | Studio Master, Official Digital Download

A year full of T. Rextasy. formed in London in 1967 under the name Tyrannosaurus Rex by Marc Bolan (vocals, guitar) and Steve Peregrin Took (percussion, backing vocals), the band renamed itself T. Rex in 1970. Starting with psychedelic folk, the Brits soon became one of the most famous representatives of glam rock. A special year in the band's career was 1972, and it is precisely to this year, 50 years later, that the box set "1972" is dedicated. Available on five CDs or six LPs and as a double LP on white vinyl with the highlights, "1972" brings together studio recordings, radio and live recordings by Marc Bolan and T. Rex.

After T. Rex had already become superstars in 1971 with the number one album "Electric Warrior" and several number one and top three singles, they reached the next top positions in 1972: "Telegram Sam" and "Metal Guru" made it to number one in the UK, "Children Of The Revolution" and "Solid Gold Easy Action" to number two and the album "The Slider" to number four. In the press there was talk of "T. Rextasy".

The new T. Rex box sets include the "Slider" album, the "Live At Wembley The Matinee Show" album plus two previously unreleased 1972 mixes of "The Evening Show," "Born To Boogie: The Soundtrack Album" released in full for the first time, Marc Bolan's "US Radio Sessions," "T. Rex On The BBC 1972" featuring a rare version of "Telegram Sam" from the "Top Of The Pops" Christmas show released 50 years after the original single was released, the 1972 B-sides and the "T. Rex Fan Club 1972 Christmas" flexi disc. The respective tracklisting of "1972" can be found below.

The accompanying booklet includes a specially written 1600-word introduction by producer Tony Visconti and a brand new 12,000-word essay by Bolan expert Mark Paytress, author of the definitive Bolan biography. Also included are many previously unpublished photos taken by Keith Morris in 1972.

TRACKLIST

CD 01

1. T. Rex - Metal Guru
2. T. Rex - Mystic Lady
3. T. Rex - Rock On
4. T. Rex - The Slider
5. T. Rex - Baby Boomerang
6. T. Rex - Spaceball Ricochet
7. T. Rex - Buick Mackane
8. T. Rex - Telegram Sam
9. T. Rex - Rabbit Fighter
10. T. Rex - Baby Strange
11. T. Rex - Ballrooms of Mars
12. T. Rex - Chariot Choogle
13. T. Rex - Main Man
14. Emperor Rosko - Rosko's Intro (Live at Wembley 1972)
15. T. Rex - Cadilac (Live at Wembley 1972)
16. T. Rex - Jeepster (Live at Wembley 1972)
17. T. Rex - Baby Strange (Live at Wembley 1972)
18. T. Rex - Spaceball Ricochet (Live at Wembley 1972)
19. T. Rex - Girl (Live at Wembley 1972)
20. T. Rex - Cosmic Dancer (Live at Wembley 1972)
21. T. Rex - Telegram Sam (Live at Wembley 1972)
22. T. Rex - Hot Love (Live at Wembley 1972)
23. T. Rex - Get It on (Live at Wembley 1972)
24. T. Rex - One More Time? (Live at Wembley 1972)
25. T. Rex - Summertime Blues (Live at Wembley 1972)
26. T. Rex - Baby Strange (Alternate Mix) [Live at Wembley 1972]
27. T. Rex - Hot Love (Alternate Mix) [Live at Wembley 1972]
28. Marc Bolan - Marc's Intro
29. T. Rex - Jeepster (Live)
30. T. Rex - Baby Strange (Live)
31. Marc Bolan - Electric Wind (Poem)
32. Elton John - Tutti Fruitti
33. Elton John - Children of the Revolution (Born to Boogie Version)
34. Marc Bolan - Look to the Left
35. Marc Bolan - Spaceball Ricochet (Live)
36. Marc Bolan - Some People Like to Rock
37. T. Rex - Telegram Sam (Live)
38. Marc Bolan - Some People Like to Roll

CD 02

1. Marc Bolan - Cosmic Dancer (Live)
2. Geoffrey Bayldon - They've Come, 'Tis Said
3. Marc Bolan - Tea Party Medley: Jeepster / Hot Love / Get It on / The Slider
4. Geoffrey Bayldon - Union Hall
5. T. Rex - Hot Love (Live)
6. T. Rex - Get It on (Live)
7. T. Rex - Chariot Choogle (Soundtrack Mix)
8. Marc Bolan - Marc's Outro
9. T. Rex - Children of the Revolution (Strings Reprise)
10. Marc Bolan - Spaceball Ricochet (Kday-Fm Studios, Santa Monica, 15th February 1972)
11. Marc Bolan - Jeepster (Kday-Fm Studios, Santa Monica, 15th February 1972)
12. Marc Bolan - Cosmic Dancer (Kday-Fm Studios, Santa Monica, 15th February 1972)
13. Marc Bolan - Main Man (Kday-Fm Studios, Santa Monica, 15th February 1972)
14. Marc Bolan - Ballrooms of Mars (Kday-Fm Studios, Santa Monica, 15th February 1972)
15. Marc Bolan - Mystic Lady (Kday-Fm Studios, Santa Monica, 15th February 1972)
16. Marc Bolan - Girl (Kday-Fm Studios, Santa Monica, 15th February 1972)
17. Marc Bolan - Baby Strange (Kday-Fm Studios, Santa Monica, 15th February 1972)
18. Marc Bolan - Left Hand Luke (Wbcn Radio, Boston, 11th September 1972)
19. Marc Bolan - The Slider (Wbcn Radio, Boston, 11th September 1972)
20. Marc Bolan - Spaceball Ricochet (Wbcn Radio, Boston, 11th September 1972)
21. T. Rex - Metal Guru (BBC, June 1972)
22. T. Rex - The Slider (BBC, August 1972)
23. T. Rex - Mystic Lady (BBC, August 1972)
24. T. Rex - Rock on (BBC, August 1972)
25. T. Rex - Main Man (BBC, August 1972)
26. T. Rex - Children of The Revolution (BBC, August 1972)
27. T. Rex - Solid Gold Easy Action (BBC, December 1972)
28. T. Rex - Telegram Sam (Top of the Pops, 25th December 1972)
29. T. Rex - Cadilac
30. T. Rex - Thunderwing
31. T. Rex - Lady
32. T. Rex - Children of the Revolution
33. T. Rex - Jitterbug Love
34. T. Rex - Sunken Rags
35. T. Rex - Solid Gold Easy Action
36. T. Rex - Xmas Riff – Born to Boogie
37. T. Rex - T. Rex Fan Club 1972 "Christmas Record" Flexi Disc

foobar2000 1.6.2 / Dynamic Range Meter 1.1.1
log date: 2022-04-21 13:58:26

––––––––––––––––––––––––––––––––––––––––
Analyzed: Elton John / 1972 (1-2)
Emperor Rosko / 1972 (3)
Marc Bolan / 1972 (4-9)
T. Rex / 1972 (10-38)
––––––––––––––––––––––––––––––––––––––––

DR Peak RMS Duration Track
––––––––––––––––––––––––––––––––––––––––
DR9 -0.50 dB -10.43 dB 1:20 32-Tutti Fruitti
DR8 -0.50 dB -10.97 dB 3:41 33-Children of the Revolution (Born to Boogie Version)
DR10 -0.50 dB -11.57 dB 0:18 14-Rosko's Intro (Live at Wembley 1972)
DR4 -3.02 dB -11.39 dB 0:14 28-Marc's Intro
DR15 -0.75 dB -19.39 dB 0:26 31-Electric Wind (Poem)
DR13 -0.10 dB -17.14 dB 0:20 34-Look to the Left
DR11 -0.50 dB -14.48 dB 4:16 35-Spaceball Ricochet (Live)
DR9 -0.50 dB -13.77 dB 0:13 36-Some People Like to Rock
DR12 -3.56 dB -21.32 dB 1:30 38-Some People Like to Roll
DR7 -0.50 dB -8.47 dB 2:28 01-Metal Guru
DR9 -0.50 dB -10.51 dB 3:14 02-Mystic Lady
DR9 -0.50 dB -10.35 dB 3:29 03-Rock On
DR7 -0.50 dB -8.95 dB 3:22 04-The Slider
DR9 -0.50 dB -10.38 dB 2:19 05-Baby Boomerang
DR10 -0.50 dB -12.21 dB 3:38 06-Spaceball Ricochet
DR8 -0.56 dB -9.40 dB 3:32 07-Buick Mackane
DR7 -0.57 dB -9.48 dB 3:46 08-Telegram Sam
DR8 -0.50 dB -10.09 dB 3:58 09-Rabbit Fighter
DR8 -0.50 dB -10.37 dB 3:06 10-Baby Strange
DR10 -0.17 dB -11.74 dB 4:10 11-Ballrooms of Mars
DR7 -0.65 dB -9.19 dB 2:46 12-Chariot Choogle
DR9 -0.50 dB -10.82 dB 4:13 13-Main Man
DR8 -0.50 dB -9.23 dB 7:01 15-Cadilac (Live at Wembley 1972)
DR7 -0.50 dB -8.90 dB 5:00 16-Jeepster (Live at Wembley 1972)
DR7 -0.50 dB -9.10 dB 4:59 17-Baby Strange (Live at Wembley 1972)
DR12 -0.50 dB -14.34 dB 3:54 18-Spaceball Ricochet (Live at Wembley 1972)
DR12 -0.50 dB -14.91 dB 3:09 19-Girl (Live at Wembley 1972)
DR12 -0.50 dB -14.23 dB 4:12 20-Cosmic Dancer (Live at Wembley 1972)
DR8 -0.50 dB -9.01 dB 4:30 21-Telegram Sam (Live at Wembley 1972)
DR8 -0.50 dB -9.40 dB 3:37 22-Hot Love (Live at Wembley 1972)
DR7 -0.50 dB -8.79 dB 11:14 23-Get It on (Live at Wembley 1972)
DR7 -0.50 dB -11.56 dB 0:26 24-One More Time? (Live at Wembley 1972)
DR8 -0.50 dB -9.87 dB 4:46 25-Summertime Blues (Live at Wembley 1972)
DR7 -0.47 dB -9.09 dB 5:22 26-Baby Strange (Alternate Mix) [Live at Wembley 1972]
DR7 -0.31 dB -8.40 dB 3:47 27-Hot Love (Alternate Mix) [Live at Wembley 1972]
DR8 -0.50 dB -9.09 dB 4:53 29-Jeepster (Live)
DR9 -0.50 dB -10.73 dB 4:46 30-Baby Strange (Live)
DR7 -0.50 dB -8.85 dB 4:24 37-Telegram Sam (Live)
––––––––––––––––––––––––––––––––––––––––

Number of tracks: 38
Official DR value: DR9

Samplerate: 44100 Hz
Channels: 2
Bits per sample: 24
Bitrate: 1662 kbps
Codec: FLAC
================================================================================

foobar2000 1.6.2 / Dynamic Range Meter 1.1.1
log date: 2022-04-21 13:58:56

––––––––––––––––––––––––––––––––––––––––
Analyzed: Geoffrey Bayldon / 1972 (1-2)
Marc Bolan / 1972 (3-16)
T. Rex / 1972 (17-37)
––––––––––––––––––––––––––––––––––––––––

DR Peak RMS Duration Track
––––––––––––––––––––––––––––––––––––––––
DR11 -6.58 dB -22.98 dB 0:36 02-They've Come, 'Tis Said
DR12 -0.50 dB -17.23 dB 0:47 04-Union Hall
DR13 -0.50 dB -16.45 dB 3:59 01-Cosmic Dancer (Live)
DR10 -0.50 dB -13.05 dB 5:36 03-Tea Party Medley: Jeepster / Hot Love / Get It on / The Slider
DR7 -1.08 dB -9.93 dB 0:24 08-Marc's Outro
DR10 -0.50 dB -11.81 dB 4:42 10-Spaceball Ricochet (Kday-Fm Studios, Santa Monica, 15th February 1972)
DR10 -0.50 dB -12.08 dB 5:09 11-Jeepster (Kday-Fm Studios, Santa Monica, 15th February 1972)
DR8 -0.50 dB -10.23 dB 7:54 12-Cosmic Dancer (Kday-Fm Studios, Santa Monica, 15th February 1972)
DR9 -0.50 dB -11.37 dB 6:10 13-Main Man (Kday-Fm Studios, Santa Monica, 15th February 1972)
DR9 -0.50 dB -11.62 dB 4:11 14-Ballrooms of Mars (Kday-Fm Studios, Santa Monica, 15th February 1972)
DR8 -0.50 dB -9.85 dB 3:13 15-Mystic Lady (Kday-Fm Studios, Santa Monica, 15th February 1972)
DR8 -0.50 dB -10.60 dB 3:04 16-Girl (Kday-Fm Studios, Santa Monica, 15th February 1972)
DR9 -0.50 dB -11.85 dB 3:04 17-Baby Strange (Kday-Fm Studios, Santa Monica, 15th February 1972)
DR5 -0.50 dB -8.29 dB 3:40 18-Left Hand Luke (Wbcn Radio, Boston, 11th September 1972)
DR7 -0.50 dB -8.77 dB 4:08 19-The Slider (Wbcn Radio, Boston, 11th September 1972)
DR7 -0.50 dB -10.15 dB 4:54 20-Spaceball Ricochet (Wbcn Radio, Boston, 11th September 1972)
DR9 -0.50 dB -10.12 dB 3:42 05-Hot Love (Live)
DR8 -0.50 dB -9.27 dB 11:08 06-Get It on (Live)
DR5 -0.50 dB -6.98 dB 2:35 07-Chariot Choogle (Soundtrack Mix)
DR8 -3.98 dB -14.53 dB 0:48 09-Children of the Revolution (Strings Reprise)
DR6 -0.50 dB -7.87 dB 2:05 21-Metal Guru (BBC, June 1972)
DR5 -0.50 dB -6.49 dB 3:29 22-The Slider (BBC, August 1972)
DR6 -0.50 dB -7.50 dB 3:08 23-Mystic Lady (BBC, August 1972)
DR7 -0.50 dB -9.54 dB 3:20 24-Rock on (BBC, August 1972)
DR7 -0.50 dB -9.48 dB 4:13 25-Main Man (BBC, August 1972)
DR7 -0.50 dB -8.64 dB 2:25 26-Children of The Revolution (BBC, August 1972)
DR6 -0.50 dB -8.28 dB 2:05 27-Solid Gold Easy Action (BBC, December 1972)
DR7 -0.50 dB -7.97 dB 3:46 28-Telegram Sam (Top of the Pops, 25th December 1972)
DR8 -0.50 dB -9.59 dB 3:53 29-Cadilac
DR8 -0.50 dB -10.39 dB 3:47 30-Thunderwing
DR9 -0.50 dB -10.90 dB 2:13 31-Lady
DR8 -0.50 dB -9.31 dB 2:30 32-Children of the Revolution
DR8 -0.50 dB -9.90 dB 2:59 33-Jitterbug Love
DR7 -0.50 dB -8.86 dB 2:54 34-Sunken Rags
DR6 -0.50 dB -8.56 dB 2:21 35-Solid Gold Easy Action
DR10 -0.50 dB -11.57 dB 2:19 36-Xmas Riff – Born to Boogie
DR7 -0.50 dB -11.01 dB 8:49 37-T. Rex Fan Club 1972 "Christmas Record" Flexi Disc
––––––––––––––––––––––––––––––––––––––––

Number of tracks: 37
Official DR value: DR8

Samplerate: 44100 Hz
Channels: 2
Bits per sample: 24
Bitrate: 1542 kbps
Codec: FLAC
================================================================================



Thanks to the Original customer.