Takashi Niigaki - Symphony 'Litany' (2016) [Official Digital Download 24/96]

Posted By: SERTiL
Takashi Niigaki - Symphony 'Litany' (2016) [Official Digital Download 24/96]

Tokyo Chamber Orchestra & Takashi Niigaki - Takashi Niigaki: Symphony "Litany" (Live At Fukushima City Concert Hall / 2016) (2016)
FLAC (tracks) 24-bit/96 kHz | Time - 67:33 minutes | 1.20 GB
Studio Master, Official Digital Download | Artwork: Front Cover

After two and a half years since the ghost writer fury, this summer, the composer Takashi Aragaki's new symphonies are completed.

From symphony No. 1 "HIROSHIMA" to the work which will be the symphony for the first time in 13 years, pour full effort as a composer and face music seriously.

Takashi Aragaki starts a new composer's life with this work. World premiere in Hiroshima on August 15, 2016.

Tracklist:

Takashi Niigaki (b.1970)

Symphony "Litany”
1. I. — 14:43
2. II. — 12:40
3. III. — 15:37

Piano Concerto "Rebirth"
4. I. — 8:45
5. II. — 6:00
6. III. — 4:27

7. Green Floating Eternally 5:21

Personnel:
Takashi Niigaki, piano #4-6, conductor, composer
Tokyo Chamber Orchestra
Kunihiro Nakamura, conductor #4-6

foobar2000 1.3.7 / Dynamic Range Meter 1.1.1
log date: 2018-01-21 15:12:38

––––––––––––––––––––––––––––––––––––––––
Analyzed: Takashi Niigaki, Tokyo Chamber Orchestra, Kunihiro Nakamura / Takashi Niigaki: Symphony 'Litany' (1-3)
Takashi Niigaki, Tokyo Chamber Orchestra / Takashi Niigaki: Symphony 'Litany' (4-7)
––––––––––––––––––––––––––––––––––––––––

DR Peak RMS Duration Track
––––––––––––––––––––––––––––––––––––––––
DR13 -1.14 dB -19.84 dB 8:46 04-Piano Concerto 'Rebirth': I
DR14 -6.56 dB -25.83 dB 6:00 05-Piano Concerto 'Rebirth': II
DR12 -1.16 dB -16.86 dB 4:27 06-Piano Concerto 'Rebirth': III
DR14 -0.12 dB -19.33 dB 14:44 01-Symphony 'Litany': I
DR12 -0.12 dB -17.68 dB 12:40 02-Symphony 'Litany': II
DR13 -0.11 dB -19.41 dB 15:37 03-Symphony 'Litany': III
DR12 -8.48 dB -24.56 dB 5:21 07-Green Floating Eternally
––––––––––––––––––––––––––––––––––––––––

Number of tracks: 7
Official DR value: DR13

Samplerate: 96000 Hz
Channels: 2
Bits per sample: 24
Bitrate: 2509 kbps
Codec: FLAC
================================================================================


Thanks to the Original customer.