Taylor Swift - Folklore (2020) [Official Digital Download]

Posted By: pyatak
Taylor Swift - Folklore (2020) [Official Digital Download]

Taylor Swift - Folklore (2020) [Official Digital Download]
FLAC (tracks) 24-bit/44.1 kHz | Front Cover | Time - 01:03:25 minutes | 740 MB
Pop | Label: Taylor Swift, Official Digital Download

That's essentially what Taylor Swift has done on "Folklore," her most introspective and emotionally raw album yet. The 10-time Grammy winner, who is known for her meticulously orchestrated album rollouts, broke from tradition and surprise-announced "Folklore" on Thursday, less than 24 hours before its Friday release.

After embracing her pop side on her past three albums, including last year's "Lover," the former country star is switching up her sound once again. This time, she's taking a page from some of her songwriting heroes including Joni Mitchell, Carly Simon and Carole King. While plenty of pop luminaries such as Justin Timberlake ("Man of the Woods") and Lady Gaga ("Joanne") have taken detours into stripped-down folk/soft rock, none have made the transition as seamlessly as Swift, who reminds us once again that she's the most gifted songwriter in music today.

TRACKLIST

1. The 1
2. Cardigan
3. The Last Great American Dynasty
4. Exile (featuring Bon Iver)
5. My Tears Ricochet
6. Mirrorball
7. Seven
8. August
9. This Is Me Trying
10. Illicit Affairs
11. Invisible String
12. Mad Woman
13. Epiphany
14. Betty
15. Peace
16. Hoax

foobar2000 1.3.16 / Dynamic Range Meter 1.1.1
log date: 2020-07-24 11:17:07

––––––––––––––––––––––––––––––––––––––––
Analyzed: Taylor Swift / folklore
––––––––––––––––––––––––––––––––––––––––

DR Peak RMS Duration Track
––––––––––––––––––––––––––––––––––––––––
DR7 -0.01 dB -7.91 dB 3:30 01-the 1
DR6 0.00 dB -8.21 dB 4:00 02-cardigan
DR6 -0.01 dB -7.86 dB 3:51 03-the last great american dynasty
DR6 -0.04 dB -8.31 dB 4:46 04-exile
DR7 -0.20 dB -11.25 dB 4:16 05-my tears ricochet
DR8 -0.10 dB -10.92 dB 3:29 06-mirrorball
DR7 -0.27 dB -8.72 dB 3:29 07-seven
DR6 -0.01 dB -9.27 dB 4:22 08-august
DR7 -0.01 dB -9.34 dB 3:15 09-this is me trying
DR7 -0.01 dB -10.51 dB 3:11 10-illicit affairs
DR7 -0.08 dB -8.13 dB 4:13 11-invisible string
DR6 -0.48 dB -8.12 dB 3:57 12-mad woman
DR8 -0.03 dB -10.50 dB 4:50 13-epiphany
DR7 -0.50 dB -10.20 dB 4:55 14-betty
DR8 0.00 dB -10.92 dB 3:54 15-peace
DR9 0.00 dB -10.84 dB 3:40 16-hoax
––––––––––––––––––––––––––––––––––––––––

Number of tracks: 16
Official DR value: DR7

Samplerate: 44100 Hz
Channels: 2
Bits per sample: 24
Bitrate: 1542 kbps
Codec: FLAC
================================================================================



Thanks to the Original customer.
Pop