Tags
Language
Tags

The Friends Of Distinction - Friends & People (2021) [Official Digital Download 24/192]

Posted By: pyatak
The Friends Of Distinction - Friends & People (2021) [Official Digital Download 24/192]

The Friends Of Distinction - Friends & People (2021) [Official Digital Download 24/192]
FLAC (tracks) 24-bit/192 kHz | Front Cover | Time - 48:48 minutes | 2,08 GB
R&B, Soul | Label: RCA - Legacy, Official Digital Download

The Friends of Distinction were an American vocal group best known for their late 1960s hits, "Grazing in the Grass", "Love or Let Me Be Lonely", and "Going in Circles". Founded by Harry Elston and Floyd Butler, The Friends of Distinction also included Jessica Cleaves and Barbara Jean Love, who was replaced by Charlene Gibson during her pregnancy.

TRACKLIST

1. The Friends Of Distinction - People
2. The Friends Of Distinction - Faces on the Bus
3. The Friends Of Distinction - I Can't Get You Out of My Mind
4. The Friends Of Distinction - Down I Go
5. The Friends Of Distinction - Dying to Live
6. The Friends Of Distinction - Oh, How I Miss You
7. The Friends Of Distinction - Jenny Wants to Know
8. The Friends Of Distinction - Let Me Be
9. The Friends Of Distinction - I Need You
10. The Friends Of Distinction - It's Time to See Each Other

foobar2000 1.6.2 / Dynamic Range Meter 1.1.1
log date: 2021-10-01 11:33:52

––––––––––––––––––––––––––––––––––––––––
Analyzed: The Friends Of Distinction / Friends & People
––––––––––––––––––––––––––––––––––––––––

DR Peak RMS Duration Track
––––––––––––––––––––––––––––––––––––––––
DR8 -1.01 dB -11.49 dB 7:20 01-People
DR9 -1.01 dB -14.41 dB 6:36 02-Faces on the Bus
DR8 -1.01 dB -12.01 dB 2:43 03-I Can't Get You Out of My Mind
DR9 -1.01 dB -11.79 dB 2:51 04-Down I Go
DR9 -1.01 dB -13.63 dB 4:53 05-Dying to Live
DR8 -1.01 dB -11.63 dB 7:48 06-Oh, How I Miss You
DR9 -1.01 dB -12.26 dB 3:07 07-Jenny Wants to Know
DR11 -1.01 dB -14.33 dB 3:10 08-Let Me Be
DR9 -1.01 dB -12.24 dB 3:14 09-I Need You
DR8 -1.01 dB -11.87 dB 7:07 10-It's Time to See Each Other
––––––––––––––––––––––––––––––––––––––––

Number of tracks: 10
Official DR value: DR9

Samplerate: 192000 Hz
Channels: 2
Bits per sample: 24
Bitrate: 6128 kbps
Codec: FLAC
================================================================================



Thanks to the Original customer.