Nicolas Achten - Il Pianto d'Orfeo - The Birth of Opera (2014) [Official Digital Download 24/88]

Posted By: SERTiL
Nicolas Achten - Il Pianto d'Orfeo - The Birth of Opera (2014) [Official Digital Download 24/88]

Nicolas Achten - Il Pianto d'Orfeo - The Birth of Opera (2014)
FLAC (tracks) 24-bit/88.2 kHz | Time - 75:35 minutes | 1.14 GB
Studio Master, Official Digital Download | Artwork: Front Cover

This album retraces the myth of Orpheus and Eurydice, comparing and contrasting different interpretations by major composers of the 16th century, including Monteverdi, Rossi and Caccini. Baritone, harpsichordist, lutenist, harpist and artistic director, Nicolas Achten is the rising figure in the world of early music. He is one of the few classical singers to accompany himself on various instruments, reviving this historical practice. Born in Brussels in 1985, he studied singing, lute, harpsichord and triple harp at the Royal Conservatories of Brussels and the Hague, and completed his training at various masterclasses, including the Académie baroque d’Ambronay and the Centre de la Voix de Royaumont.

“The seamless narrative is organised into six subsections that follow the plot of the myth, connected together by instrumental pieces such as warmly played sinfonias by Rossi and music by Cavalieri…this captivating experience is enriched by Deborah York's five contributions” (Gramophone)

TRACKLIST
01. L'Orfeo: Sinfonia
02. Curtio precipitato et altri capricii, Libro secondo: "Folle è ben che si crede"
03. La Pellegrina: Aria di Fiorenza
04. L'Euridice: "Antri ch'à miei lamenti"
05. L'Orfeo: "All'imperio d'Amore"
06. L'Orfeo: "Rosa del ciel"
07. L'Orfeo: "Mio ben, teco il tormento"
08. L'Orfeo: "Vi ricorda, o boschi ombrosi"
09. Intavolatura Di Liuto Et Di Chitarrone, Libro Primo: Toccata XIII
10. L'Orfeo: "Tu se' morta"
11. Le Nuove Musiche: Aria di romanesca
12. Caccini-L'Euridice: "Non piango, e non sospiro"
13. Peri-L'Euridice: "Non piango, e non sospiro"
14. Le Nuove Musiche: Aria di romanesca
15. Le Nuove Musiche: Movetevi à pietà
16. L'Euridice: "Funeste piagge"
17. Il primo libro di Canzone, Sinfonie, Fantasie, Capricci, Brandi, Correnti, Gagliarde, Alemanne, Volte: La suave melodia
18. L'Euridice: "Funeste piagge"
19. L'Orfeo: "Orfeo, tu dormi?"
20. L'Orfeo: "Se desti pietà"
21. L'Orfeo: "Possente spirto"
22. L'Orfeo: Sinfonia
23. L'Orfeo: "Ahi vista troppo dolce"
24. Les pleurs d'Orphée aillant perdu sa femme
25. Il libro quinto d'arie: "Muove Orfeo l'empia Dite"
26. L'Orfeo: "Lasciate Averno"

PERSONNEL
Nicolas Achten, baritone, harpsichord, harp
Scherzi Musicali

foobar2000 1.3.7 / Dynamic Range Meter 1.1.1
log date: 2017-08-27 16:23:07

––––––––––––––––––––––––––––––––––––––––
Analyzed: Nicolas Achten / Il Pianto d'Orfeo - The Birth of Opera
––––––––––––––––––––––––––––––––––––––––

DR Peak RMS Duration Track
––––––––––––––––––––––––––––––––––––––––
DR10 -3.75 dB -21.12 dB 2:38 01-L'Orfeo: Sinfonia
DR16 -2.14 dB -22.90 dB 3:49 02-Curtio precipitato et altri capricii, Libro secondo: "Folle è ben che si crede"
DR12 -7.18 dB -23.29 dB 2:01 03-La Pellegrina: Aria di Fiorenza
DR15 -6.57 dB -25.10 dB 2:28 04-L'Euridice: "Antri ch'à miei lamenti"
DR11 -5.70 dB -20.58 dB 1:15 05-L'Orfeo: "All'imperio d'Amore"
DR16 -3.40 dB -25.58 dB 2:03 06-L'Orfeo: "Rosa del ciel"
DR12 -3.02 dB -20.82 dB 3:12 07-L'Orfeo: "Mio ben, teco il tormento"
DR13 -1.53 dB -23.50 dB 2:12 08-L'Orfeo: "Vi ricorda, o boschi ombrosi"
DR13 -13.06 dB -31.54 dB 2:26 09-Intavolatura Di Liuto Et Di Chitarrone, Libro Primo: Toccata XIII
DR15 -4.20 dB -24.10 dB 2:19 10-L'Orfeo: "Tu se' morta"
DR10 -8.05 dB -23.75 dB 1:30 11-Le Nuove Musiche: Aria di romanesca
DR13 -3.35 dB -26.41 dB 1:28 12-Caccini-L'Euridice: "Non piango, e non sospiro"
DR15 -1.53 dB -23.61 dB 1:35 13-Peri-L'Euridice: "Non piango, e non sospiro"
DR11 -9.77 dB -23.72 dB 0:44 14-Le Nuove Musiche: Aria di romanesca
DR11 -6.66 dB -22.23 dB 2:52 15-Le Nuove Musiche: Movetevi à pietà
DR15 -2.03 dB -26.16 dB 4:02 16-L'Euridice: "Funeste piagge"
DR12 -7.07 dB -24.34 dB 5:06 17-Il primo libro di Canzone, Sinfonie, Fantasie, Capricci, Brandi, Correnti, Gagliarde, Alemanne, Volte: La suave melodia
DR16 -4.32 dB -24.25 dB 5:27 18-L'Euridice: "Funeste piagge"
DR13 -5.87 dB -25.25 dB 2:27 19-L'Orfeo: "Orfeo, tu dormi?"
DR12 -0.96 dB -18.24 dB 1:26 20-L'Orfeo: "Se desti pietà"
DR15 -1.79 dB -22.84 dB 10:06 21-L'Orfeo: "Possente spirto"
DR10 -11.48 dB -25.33 dB 1:05 22-L'Orfeo: Sinfonia
DR11 -8.16 dB -26.33 dB 1:05 23-L'Orfeo: "Ahi vista troppo dolce"
DR11 -9.71 dB -24.63 dB 3:17 24-Les pleurs d'Orphée aillant perdu sa femme
DR16 -7.06 dB -31.09 dB 2:36 25-Il libro quinto d'arie: "Muove Orfeo l'empia Dite"
DR13 -5.55 dB -24.01 dB 6:38 26-L'Orfeo: "Lasciate Averno"
––––––––––––––––––––––––––––––––––––––––

Number of tracks: 26
Official DR value: DR13

Samplerate: 88200 Hz
Channels: 2
Bits per sample: 24
Bitrate: 2139 kbps
Codec: FLAC
================================================================================


Thanks to the Original customer.