Neil Diamond - The Christmas Album, Vol. II (1994/2016) [Official Digital Download 24/192]

Posted By: SERTiL
Neil Diamond - The Christmas Album, Vol. II (1994/2016) [Official Digital Download 24/192]

Neil Diamond - The Christmas Album, Vol. II (1994/2016)
FLAC (tracks) 24-bit/192 kHz | Time - 49:52 minutes | 2.21 GB
Studio Master, Official Digital Download | Artwork: Front Cover

Neil came up with a stocking full of unique arrangements of holiday perennials for this 1994 album. See what he does with The Hallelujah Chorus; Sleigh Ride; Away in a Manger; Winter Wonderland; The First Noel; Joy to the World , and more!

AllMusic Review by William Ruhlmann
Neil Diamond's first Christmas album, released in 1992, was a million-seller, but even so, it seemed a little bit soon to be releasing another one only two years later. Not that it much matters which Christmas season you release a Christmas album in. Working again with producer Peter Asher, Diamond addresses 15 seasonal songs that hadn't made it onto the first album, sometimes coming up with unusual arrangements, such as a barbershop quartet version of a medley of "Deck the Halls" and "We Wish You a Merry Christmas," and a reggae version of "Rudolph the Red-Nosed Reindeer" complete with exhortations to children everywhere. But, especially toward the end of the album, Diamond tales a more traditional approach, singing some of the more religious Christmas songs with an orchestra and chorus.

Tracklist:
01. Joy To The World
02. Mary's Little Boy Child
03. Deck The Halls / We Wish You A Merry Christmas
04. Winter Wonderland
05. Have Yourself A Merry Little Christmas
06. I'll Be Home For Christmas
07. Rudolph The Red-Nosed Reindeer
08. Sleigh Ride
09. Candlelight Carol
10. Away In A Manger
11. O Come All Ye Faithful
12. O Little Town Of Bethlehem
13. Angels We Have Heard On High
14. The First Noel
15. Hallelujah Chorus

foobar2000 1.3.7 / Dynamic Range Meter 1.1.1
log date: 2018-01-21 23:12:00

––––––––––––––––––––––––––––––––––––––––
Analyzed: Neil Diamond / The Christmas Album, Vol. II
––––––––––––––––––––––––––––––––––––––––

DR Peak RMS Duration Track
––––––––––––––––––––––––––––––––––––––––
DR4 0.00 dB -5.99 dB 2:40 01-Joy To The World
DR6 -0.05 dB -7.79 dB 3:00 02-Mary's Little Boy Child
DR8 -0.28 dB -10.49 dB 1:42 03-Deck The Halls / We Wish You A Merry Christmas
DR5 0.00 dB -5.95 dB 2:45 04-Winter Wonderland
DR6 0.00 dB -7.35 dB 4:44 05-Have Yourself A Merry Little Christmas
DR5 0.00 dB -8.29 dB 3:43 06-I'll Be Home For Christmas
DR7 0.00 dB -8.53 dB 4:04 07-Rudolph The Red-Nosed Reindeer
DR5 0.00 dB -7.24 dB 2:42 08-Sleigh Ride
DR5 0.00 dB -8.01 dB 4:10 09-Candlelight Carol
DR7 0.00 dB -8.41 dB 2:34 10-Away In A Manger
DR4 0.00 dB -6.24 dB 4:16 11-O Come All Ye Faithful
DR4 0.00 dB -6.89 dB 3:37 12-O Little Town Of Bethlehem
DR4 0.00 dB -7.27 dB 3:18 13-Angels We Have Heard On High
DR5 0.00 dB -8.95 dB 3:34 14-The First Noel
DR4 0.00 dB -5.46 dB 3:33 15-Hallelujah Chorus
––––––––––––––––––––––––––––––––––––––––

Number of tracks: 15
Official DR value: DR5

Samplerate: 192000 Hz
Channels: 2
Bits per sample: 24
Bitrate: 6421 kbps
Codec: FLAC
================================================================================


Thanks to the Original customer.