Juan Diego Flórez - The Ultimate Collection (2016) [Official Digital Download]

Posted By: SERTiL
Juan Diego Flórez - The Ultimate Collection (2016) [Official Digital Download]

Juan Diego Flórez - The Ultimate Collection (2016)
FLAC (tracks) 24-bit/48kHz | Time - 64:55 minutes | 669 MB
Studio Master, Official Digital Download | Artwork: Front Cover

Decca’s “dashing tenor, the king of the bel canto repertory” (New York Times) Juan Diego Flórez has over 15 years become the lyric tenor of choice among cognoscenti, colouring his notes like an artist does a canvas.

On this affordable, handsomely-packaged album, Florez celebrates 15 years with a collection of his finest arias, featuring some of the music to be heard on 2016’s ‘Last Night of the Proms’. Moreover, three tracks appear on CD for the first time: ‘Puisqu’on ne peut flêchir’, ‘Ave Maria’ and ‘Amapola’.

“…when Flórez performs, audiences know they are in the presence of a true virtuoso.'

Awarded Peru's highest honour, the Gran Cruz de la Orden del Sol del Perú, Flórez’s philanthropic projects now include a Foundation in Peru encouraging the development of national youth and children's choirs and orchestras.

Tracklist:
01. Donizetti: La fille du régiment / Act 1-"Ah! mes amis, quel jour de fête!"
02. Rossini: La Cenerentola / Act 2-"Sì di ritrovarla io giuro"
03. Donizetti: L'elisir d'amore / Act 2-"Una furtiva lagrima"
04. Offenbach: La belle Hélène / Act 1-"Au Mont Ida, trois déesses"
05. Verdi: Rigoletto / Act 3-"La donna è mobile"
06. Bellini: I Puritani / Act 1-"A te, o cara"
07. Puccini: Gianni Schicchi-"Avete torto!…Firenze è come un albero fiorito"
08. Massenet: Werther / Act 3-"Toute mon âme est là! Pourquoi me réveiller, ô souffle de printemps?"
09. Lalo: Le Roi d'Ys / Act 3-"Puisqu'on ne peut flêchir ces jalouses gardiennes-vainement ma bien aimée"
10. Gluck: Orfeo ed Euridice, Wq. 30 / Act 3-"J'ai perdu mon Euridice"
11. J.S. Bach: Ave Maria, CG 89a
12. Franck: Panis Angelicus, FWV 61
13. Adam: Cantique de Noël
14. Arrivederci Roma
15. Lacalle: Amapola

foobar2000 1.3.7 / Dynamic Range Meter 1.1.1
log date: 2017-12-24 14:18:26

––––––––––––––––––––––––––––––––––––––––
Analyzed: Carlo Rizzi and Juan Diego Flórez and Orchestra Sinfonica di Milano Giuseppe Verdi / The Ultimate Collection (1-2)
Coro Sinfonico di Milano Giuseppe Verdi and Juan Diego Flórez and Orchestra Sinfonica di Milano Giuseppe Verdi and Riccardo Chailly / The Ultimate Collection (3)
Ermonela Jaho & Nicola Ulivieri & Juan Diego Flórez & Nikola Mijailovic & Riccardo Frizza & Orchestra Sinfonica di Milano Giuseppe Verdi & Coro Sinfonico di Milano Giuseppe Verdi / The Ultimate Collection (4)
Juan Diego Flórez & Orchestra del Teatro Comunale di Bologna & Coro del Teatro Comunale di Bologna & Michele Mariotti / The Ultimate Collection (5)
Juan Diego Flórez & Orchestra Sinfonica di Milano Giuseppe Verdi & Carlo Rizzi / The Ultimate Collection (6)
Juan Diego Flórez & Riccardo Frizza & Orchestra Sinfonica di Milano Giuseppe Verdi / The Ultimate Collection (7)
Juan Diego Flórez & Shields-Collins Bray & David Gálvez & Daniel Binelli / The Ultimate Collection (8)
Ksenija Sidorova & Avi Avital & Juan Diego Flórez / The Ultimate Collection (9)
Michele Mariotti & Juan Diego Flórez & Orchestra del Teatro Comunale di Bologna / The Ultimate Collection (10)
Orchestra del Teatro Comunale di Bologna & Juan Diego Flórez & Roberto Abbado / The Ultimate Collection (11)
Orchestra del Teatro Comunale di Bologna & Michele Mariotti & Juan Diego Flórez / The Ultimate Collection (12)
Orchestra del Teatro Comunale di Bologna & Roberto Abbado & Juan Diego Flórez / The Ultimate Collection (13)
Orchestra Sinfonica di Milano Giuseppe Verdi & Nikola Mijailovic & Juan Diego Flórez & Coro Sinfonico di Milano Giuseppe Verdi & Riccardo Frizza / The Ultimate Collection (14)
Roberto Abbado & Juan Diego Flórez & Orchestra del Teatro Comunale di Bologna / The Ultimate Collection (15)
––––––––––––––––––––––––––––––––––––––––

DR Peak RMS Duration Track
––––––––––––––––––––––––––––––––––––––––
DR13 -0.10 dB -18.25 dB 2:25 05-Verdi: Rigoletto / Act 3-"La donna è mobile"
DR11 -0.10 dB -16.12 dB 3:18 07-Puccini: Gianni Schicchi-"Avete torto!…Firenze è come un albero fiorito"
DR13 -0.10 dB -17.66 dB 6:01 02-Rossini: La Cenerentola / Act 2-"Sì di ritrovarla io giuro"
DR13 -0.10 dB -18.39 dB 6:54 06-Bellini: I Puritani / Act 1-"A te, o cara"
DR13 -0.12 dB -18.57 dB 2:59 11-J.S. Bach: Ave Maria, CG 89a
DR13 -0.10 dB -17.78 dB 4:35 10-Gluck: Orfeo ed Euridice, Wq. 30 / Act 3-"J'ai perdu mon Euridice"
DR13 -3.73 dB -21.87 dB 4:43 03-Donizetti: L'elisir d'amore / Act 2-"Una furtiva lagrima"
DR9 -3.10 dB -16.29 dB 4:28 15-Lacalle: Amapola
DR13 -1.04 dB -18.51 dB 3:51 14-Arrivederci Roma
DR12 -1.71 dB -16.81 dB 4:38 13-Adam: Cantique de Noël
DR12 -0.10 dB -16.46 dB 3:57 04-Offenbach: La belle Hélène / Act 1-"Au Mont Ida, trois déesses"
DR12 -0.78 dB -18.04 dB 3:32 12-Franck: Panis Angelicus, FWV 61
DR12 -0.10 dB -17.41 dB 3:30 09-Lalo: Le Roi d'Ys / Act 3-"Puisqu'on ne peut flêchir ces jalouses gardiennes-vainement ma bien aimée"
DR13 -0.10 dB -18.53 dB 7:04 01-Donizetti: La fille du régiment / Act 1-"Ah! mes amis, quel jour de fête!"
DR8 -0.10 dB -13.25 dB 3:08 08-Massenet: Werther / Act 3-"Toute mon âme est là! Pourquoi me réveiller, ô souffle de printemps?"
––––––––––––––––––––––––––––––––––––––––

Number of tracks: 15
Official DR value: DR12

Samplerate: 48000 Hz
Channels: 2
Bits per sample: 24
Bitrate: 1459 kbps
Codec: FLAC
================================================================================


Thanks to the Original customer.