Tags
Language
Tags

The Allman Brothers Band - Where It All Begins (1994/2018) [Official Digital Download]

Posted By: pyatak
The Allman Brothers Band - Where It All Begins (1994/2018) [Official Digital Download]

The Allman Brothers Band - Where It All Begins (1994/2018) [Official Digital Download]
FLAC (tracks) 24-bit/48 kHz | Front Cover | Time - 55:53 minutes | 730 MB
Rock, Blues Rock | Label: Epic, Official Digital Download

Twin leads, two drummers, an impossibly soulful vocalist! No American band ever emerged with the sheer power of the Allmans. The 1994 album "Where It All Begins" was the eleventh and last studio album the group recorded with original founder/guitarist Dickey Betts. It contains Betts' over 9 minutes song "Back Where It All Begins" with a melodic guitar duel by Warren Haynes and Betts. Another favorite is called "No One Left To Run With" by Greg Allman with a recognizable Bo Diddly riff. Another high-lite of the album is Warren Haynes concert and fan favorite "Soulshine". In the United States the album reached the GOLD status!

TRACKLIST

1. The Allman Brothers Band - All Night Train (Album Version)
2. The Allman Brothers Band - Sailin' 'Cross The Devil's Sea (Album Version)
3. The Allman Brothers Band - Back Where It All Begins (Album Version)
4. The Allman Brothers Band - Soulshine (Album Version)
5. The Allman Brothers Band - No One to Run With (Album Version)
6. The Allman Brothers Band - Change My Way Of Living (Album Version)
7. The Allman Brothers Band - Mean Woman Blues (Album Version)
8. The Allman Brothers Band - Everybody's Got A Mountain To Climb (Album Version)
9. The Allman Brothers Band - What's Done Is Done (Album Version)
10. The Allman Brothers Band - Temptation Is A Gun (Album Version)

foobar2000 1.6.2 / Dynamic Range Meter 1.1.1
log date: 2021-05-26 20:54:26

––––––––––––––––––––––––––––––––––––––––
Analyzed: The Allman Brothers Band / Where It All Begins
––––––––––––––––––––––––––––––––––––––––

DR Peak RMS Duration Track
––––––––––––––––––––––––––––––––––––––––
DR10 -0.02 dB -10.64 dB 4:04 01-All Night Train (Album Version)
DR10 -0.02 dB -10.93 dB 4:57 02-Sailin' 'Cross The Devil's Sea (Album Version)
DR9 -0.02 dB -10.48 dB 9:10 03-Back Where It All Begins (Album Version)
DR9 -0.02 dB -10.20 dB 6:44 04-Soulshine (Album Version)
DR9 -0.02 dB -9.91 dB 6:00 05-No One to Run With (Album Version)
DR9 -0.02 dB -10.43 dB 6:15 06-Change My Way Of Living (Album Version)
DR10 -0.02 dB -10.38 dB 5:01 07-Mean Woman Blues (Album Version)
DR9 -0.02 dB -10.47 dB 4:00 08-Everybody's Got A Mountain To Climb (Album Version)
DR10 -0.02 dB -10.66 dB 4:08 09-What's Done Is Done (Album Version)
DR9 -0.02 dB -10.91 dB 5:37 10-Temptation Is A Gun (Album Version)
––––––––––––––––––––––––––––––––––––––––

Number of tracks: 10
Official DR value: DR9

Samplerate: 48000 Hz
Channels: 2
Bits per sample: 24
Bitrate: 1777 kbps
Codec: FLAC
================================================================================



Thanks to the Original customer.