The Band - Moondog Matinee (1973/2013) [Official Digital Download 24/192]

Posted By: pyatak
The Band - Moondog Matinee (1973/2013) [Official Digital Download 24/192]

The Band - Moondog Matinee (1973/2013) [Official Digital Download 24/192]
FLAC (tracks) 24-bit/192 kHz | Front Cover | Time - 35:51 minutes | 1,34 GB
Rock | Label: Capitol Records, Official Digital Download

Moondog Matinee is the fifth studio album by Canadian/American rock group the Band, released in 1973. It consists entirely of cover material reflecting the group's love of R&B and blues music, with one exception in their interpretation of the theme from the film The Third Man.

In a 2002 interview, Levon Helm described the reasoning for recording an album of covers: "That was all we could do at the time. We couldn't get along—we all knew that fairness was a bunch of shit. We all knew we were getting screwed, so we couldn't sit down and create no more music. 'Up on Cripple Creek' and all that stuff was over—all that collaboration was over, and that type of song was all we could do."[7]

The original idea had been to replicate the group's setlists of the mid-'60s when they had been known as Levon and the Hawks, playing clubs throughout Canada and the US. Of the ten tracks, only one, "Share Your Love (With Me)" had been performed by the group in the mid-'60s. The rest were merely tracks the group admired, two of them, "Holy Cow" and "A Change Is Gonna Come", chronologically coming after the group's club days.

Rhapsody praised the album, calling it one of its favorite cover albums.[8]

TRACKLIST

1. The Band - Ain't Got No Home (Remastered 2000)
2. The Band - Holy Cow (Remastered)
3. The Band - Share Your Love With Me (Remastered)
4. The Band - Mystery Train (Remastered)
5. The Band - The Third Man Theme (Remastered)
6. The Band - The Promised Land (Remastered)
7. The Band - The Great Pretender (Remastered)
8. The Band - I'm Ready (Remastered)
9. The Band - Saved (Remastered)
10. The Band - A Change Is Gonna Come (Remastered)

foobar2000 1.6.2 / Dynamic Range Meter 1.1.1
log date: 2021-04-21 15:45:35

––––––––––––––––––––––––––––––––––––––––
Analyzed: The Band / Moondog Matinee
––––––––––––––––––––––––––––––––––––––––

DR Peak RMS Duration Track
––––––––––––––––––––––––––––––––––––––––
DR8 -0.10 dB -9.92 dB 3:24 01-Ain't Got No Home (Remastered 2000)
DR9 0.00 dB -10.79 dB 3:21 02-Holy Cow (Remastered)
DR9 -0.24 dB -11.47 dB 2:55 03-Share Your Love With Me (Remastered)
DR9 -0.06 dB -10.89 dB 5:41 04-Mystery Train (Remastered)
DR10 -0.05 dB -11.17 dB 2:46 05-The Third Man Theme (Remastered)
DR8 -0.02 dB -9.81 dB 3:01 06-The Promised Land (Remastered)
DR9 -0.19 dB -10.92 dB 3:10 07-The Great Pretender (Remastered)
DR8 0.00 dB -8.98 dB 3:26 08-I'm Ready (Remastered)
DR8 -0.01 dB -9.07 dB 3:49 09-Saved (Remastered)
DR8 -0.19 dB -10.19 dB 4:18 10-A Change Is Gonna Come (Remastered)
––––––––––––––––––––––––––––––––––––––––

Number of tracks: 10
Official DR value: DR9

Samplerate: 192000 Hz
Channels: 2
Bits per sample: 24
Bitrate: 5350 kbps
Codec: FLAC
================================================================================



Thanks to the Original customer.