Tags
Language
Tags

The Beach Boys - The Beach Boys' Christmas Album (Mono & Stereo) (1964/2021) [Official Digital Download 24/96]

Posted By: pyatak
The Beach Boys - The Beach Boys' Christmas Album  (Mono & Stereo) (1964/2021) [Official Digital Download 24/96]

The Beach Boys - The Beach Boys' Christmas Album (Mono & Stereo) (1964/2021) [Official Digital Download 24/96]
FLAC (tracks) 24-bit/96 kHz | Front Cover | Time - 53:24 minutes | 1,98 GB
Pop, X-Mas | Label: Capitol Records, Official Digital Download

Beach Boys' Christmas Album features the Beach Boys performing a variety of holiday favorites. Most of the featured songs are well-known, some of the more popular being "Frosty the Snowman," "White Christmas," "Santa Claus Is Coming to Town," and "I'll Be Home for Christmas," among others. Furthermore, there are four songs composed by the Beach Boys – "Little Saint Nick," "Man With All the Toys," "Santa's Beard," and "Merry Christmas, Baby" – which begin the album. This mix of favorites and originals makes this a balanced holiday album that should please both Beach Boys admirers and those unfamiliar with the group.

TRACKLIST

1. The Beach Boys - Little Saint Nick (Mono Version)
2. The Beach Boys - The Man With All The Toys (Mono Version)
3. The Beach Boys - Santa's Beard (Mono Version)
4. The Beach Boys - Merry Christmas, Baby (Mono Version)
5. The Beach Boys - Christmas Day (Mono Version)
6. The Beach Boys - Frosty The Snowman (Mono Version)
7. The Beach Boys - We Three Kings Of Orient Are (Mono Version)
8. The Beach Boys - Blue Christmas (Mono Version)
9. The Beach Boys - Santa Claus Is Comin' To Town (Mono Version)
10. The Beach Boys - White Christmas (Mono Version)
11. The Beach Boys - I'll Be Home For Christmas (Mono Version)
12. The Beach Boys - Auld Lang Syne (Mono Version)
13. The Beach Boys - Little Saint Nick (Stereo Version)
14. The Beach Boys - The Man With All The Toys (Stereo Version)
15. The Beach Boys - Santa's Beard (Stereo Version)
16. The Beach Boys - Merry Christmas, Baby (Stereo Version)
17. The Beach Boys - Christmas Day (Stereo Version)
19. The Beach Boys - We Three Kings Of Orient Are (Stereo Version)
20. The Beach Boys - Blue Christmas (Stereo Version)
21. The Beach Boys - Santa Claus Is Comin' To Town (Stereo Version)
22. The Beach Boys - White Christmas (Stereo Version)
23. The Beach Boys - I'll Be Home For Christmas (Stereo Version)
24. The Beach Boys - Auld Lang Syne (Stereo Version)

foobar2000 1.6.2 / Dynamic Range Meter 1.1.1
log date: 2021-12-08 11:22:09

––––––––––––––––––––––––––––––––––––––––
Analyzed: The Beach Boys / The Beach Boys' Christmas Album
––––––––––––––––––––––––––––––––––––––––

DR Peak RMS Duration Track
––––––––––––––––––––––––––––––––––––––––
DR10 -2.08 dB -13.91 dB 1:56 01-Little Saint Nick (Mono Version)
DR11 -1.30 dB -14.37 dB 1:35 02-The Man With All The Toys (Mono Version)
DR10 -0.95 dB -12.13 dB 1:59 03-Santa's Beard (Mono Version)
DR10 -1.06 dB -12.75 dB 1:54 04-Merry Christmas, Baby (Mono Version)
DR12 -1.94 dB -15.52 dB 1:51 05-Christmas Day (Mono Version)
DR9 -1.67 dB -12.73 dB 1:55 06-Frosty The Snowman (Mono Version)
DR9 -1.51 dB -12.50 dB 4:03 07-We Three Kings Of Orient Are (Mono Version)
DR9 -1.90 dB -13.02 dB 3:12 08-Blue Christmas (Mono Version)
DR9 -1.80 dB -12.27 dB 2:21 09-Santa Claus Is Comin' To Town (Mono Version)
DR10 -2.37 dB -13.84 dB 2:31 10-White Christmas (Mono Version)
DR9 -1.78 dB -12.75 dB 2:46 11-I'll Be Home For Christmas (Mono Version)
DR10 -2.26 dB -15.89 dB 1:19 12-Auld Lang Syne (Mono Version)
DR9 -1.19 dB -11.91 dB 2:02 13-Little Saint Nick (Stereo Version)
DR8 -0.63 dB -10.84 dB 1:34 14-The Man With All The Toys (Stereo Version)
DR9 -0.85 dB -11.33 dB 2:02 15-Santa's Beard (Stereo Version)
DR9 0.00 dB -10.63 dB 2:21 16-Merry Christmas, Baby (Stereo Version)
DR9 0.00 dB -11.08 dB 1:48 17-Christmas Day (Stereo Version)
DR10 -0.36 dB -12.92 dB 4:06 19-We Three Kings Of Orient Are (Stereo Version)
DR11 0.00 dB -13.35 dB 3:11 20-Blue Christmas (Stereo Version)
DR10 0.00 dB -11.93 dB 2:22 21-Santa Claus Is Comin' To Town (Stereo Version)
DR10 -0.40 dB -13.00 dB 2:31 22-White Christmas (Stereo Version)
DR10 -0.47 dB -13.35 dB 2:45 23-I'll Be Home For Christmas (Stereo Version)
DR10 -0.04 dB -14.27 dB 1:19 24-Auld Lang Syne (Stereo Version)
––––––––––––––––––––––––––––––––––––––––

Number of tracks: 23
Official DR value: DR10

Samplerate: 192000 Hz
Channels: 2
Bits per sample: 24
Bitrate: 5774 kbps
Codec: FLAC
================================================================================



Thanks to the Original customer.