Tags
Language
Tags

The Dark Tenor - Christmas Deluxe (2021) [Official Digital Download]

Posted By: pyatak
The Dark Tenor - Christmas Deluxe (2021) [Official Digital Download]

The Dark Tenor - Christmas Deluxe (2021) [Official Digital Download]
FLAC (tracks) 24-bit/44.1 kHz | Front Cover | Time -77:48 minutes | 833 MB
Pop, X-Mas | Label: ADA Asia, Official Digital Download

Gerade erst erschien sein aktuelles Album "Johann - A J.S. Bach Story By Billy Andrews", da kündigt The Dark Tenor schon die nächste Scheibe an: Passend zum Weihnachtsfest erscheint am 26. Dezember "Christmas Deluxe".

TRACKLIST

01. The Dark Tenor - Coming Home (Bonus Track)
02. The Dark Tenor - Late December (Bonus Track)
03. The Dark Tenor - This Is Christmas (Bonus Track)
04. The Dark Tenor - Hallelujah
05. The Dark Tenor - Ave Maria
06. The Dark Tenor - Maria Durch Ein Dornwald Ging
07. The Dark Tenor - Silent Night
08. The Dark Tenor - Sind Die Lichter Angezündet
09. The Dark Tenor - Es Ist Ein Ros´Entsprungen
10. The Dark Tenor - Adeste Fideles
11. The Dark Tenor - I´ll Be Home For Christmas
12. The Dark Tenor - In Dulci Jubilo
13. The Dark Tenor - Stille Nacht
14. The Dark Tenor - O Du Fröhliche
15. The Dark Tenor - Hallelujah (Live Bonus Track)
16. The Dark Tenor - Ave Maria (Live Bonus Track)
17. The Dark Tenor - I’ll be home for Christmas (Live Bonus Track)
18. The Dark Tenor - Winter Wonderland (Live Bonus Track)
19. The Dark Tenor - Sind die Lichter angezündet (Live Bonus Track)
20. The Dark Tenor - Happy X-Mas (Live Bonus Track)
21. The Dark Tenor - Santa Clause is coming to town (Live Bonus Track)
22. The Dark Tenor - Silent Night (Live Bonus Track)

foobar2000 1.6.2 / Dynamic Range Meter 1.1.1
log date: 2021-11-25 19:56:11

––––––––––––––––––––––––––––––––––––––––
Analyzed: The Dark Tenor / Christmas Deluxe
––––––––––––––––––––––––––––––––––––––––

DR Peak RMS Duration Track
––––––––––––––––––––––––––––––––––––––––
DR3 -0.31 dB -8.20 dB 3:26 01-Coming Home (Bonus Track)
DR5 -0.31 dB -10.30 dB 4:33 02-Late December (Bonus Track)
DR4 -0.31 dB -7.00 dB 4:07 03-This Is Christmas (Bonus Track)
DR8 -0.31 dB -10.27 dB 5:15 04-Hallelujah
DR9 -0.31 dB -10.98 dB 2:51 05-Ave Maria
DR10 -0.31 dB -12.78 dB 3:39 06-Maria Durch Ein Dornwald Ging
DR9 -0.31 dB -11.97 dB 3:23 07-Silent Night
DR12 -0.32 dB -14.62 dB 2:38 08-Sind Die Lichter Angezündet
DR9 -0.32 dB -11.55 dB 3:01 09-Es Ist Ein Ros´Entsprungen
DR10 -0.31 dB -12.37 dB 2:30 10-Adeste Fideles
DR11 -0.31 dB -12.98 dB 3:01 11-I´ll Be Home For Christmas
DR12 -0.32 dB -14.73 dB 3:48 12-In Dulci Jubilo
DR9 -0.32 dB -11.84 dB 3:23 13-Stille Nacht
DR9 -0.31 dB -13.53 dB 4:24 14-O Du Fröhliche
DR9 -0.31 dB -12.18 dB 4:21 15-Hallelujah (Live Bonus Track)
DR10 -0.31 dB -13.49 dB 2:54 16-Ave Maria (Live Bonus Track)
DR9 -0.31 dB -11.62 dB 3:09 17-I’ll be home for Christmas (Live Bonus Track)
DR7 -0.31 dB -9.79 dB 2:40 18-Winter Wonderland (Live Bonus Track)
DR8 -0.31 dB -10.97 dB 2:32 19-Sind die Lichter angezündet (Live Bonus Track)
DR9 -0.31 dB -11.80 dB 4:42 20-Happy X-Mas (Live Bonus Track)
DR8 -0.31 dB -11.24 dB 4:06 21-Santa Clause is coming to town  (Live Bonus Track)
DR10 -0.31 dB -13.98 dB 3:25 22-Silent Night (Live Bonus Track)
––––––––––––––––––––––––––––––––––––––––

Number of tracks: 22
Official DR value: DR9

Samplerate: 44100 Hz
Channels: 2
Bits per sample: 24
Bitrate: 1378 kbps
Codec: FLAC
================================================================================



Thanks to the Original customer.