The Go-Go's - Vacation (1982/2021) [Official Digital Download 24/96]

Posted By: pyatak
The Go-Go's - Vacation (1982/2021) [Official Digital Download 24/96]

The Go-Go's - Vacation (1982/2021) [Official Digital Download 24/96]
FLAC (tracks) 24-bit/96 kHz | Front Cover | Time - 35:55 minutes | 793 MB
Pop Rock | Label: A&M, Official Digital Download

Capitalising on the swift success of the debut album, the Go-Go’s toured extensively in Europe and the US, even playing Madison Square Garden, and needed a “vacation” when the time came to record the follow-up album in late 1981.

Produced again by Richard Gottehrer, “Vacation” featured another eleven originals, including hit single title track and “Get Up And Go”, as well as a cover of The Capitols’ old favourite “Cool Jerk”.

The bonus tracks on this deluxe digipak reissue include a non-album b-side, a demo and live performances from late ’81 and June ’82.

For the comprehensive note, Paul Myers has newly interviewed Belinda, Charlotte and Jane for the full story of the writing and recording of the album.

TRACKLIST

1. The Go-Go's - Vacation
2. The Go-Go's - He's So Strange
3. The Go-Go's - Girl Of 100 Lists
4. The Go-Go's - We Don't Get Along
5. The Go-Go's - I Think It's Me
6. The Go-Go's - It's Everything But Partytime
7. The Go-Go's - Get Up And Go
8. The Go-Go's - This Old Feeling
9. The Go-Go's - Cool Jerk
10. The Go-Go's - The Way You Dance
11. The Go-Go's - Beatnik Beach
12. The Go-Go's - Worlds Away

foobar2000 1.6.2 / Dynamic Range Meter 1.1.1
log date: 2021-02-23 13:18:02

––––––––––––––––––––––––––––––––––––––––
Analyzed: The Go-Go's / Vacation
––––––––––––––––––––––––––––––––––––––––

DR Peak RMS Duration Track
––––––––––––––––––––––––––––––––––––––––
DR13 -0.54 dB -14.41 dB 2:59 01-Vacation
DR12 -0.54 dB -13.53 dB 2:58 02-He's So Strange
DR12 -0.77 dB -14.75 dB 2:19 03-Girl Of 100 Lists
DR12 -0.54 dB -14.39 dB 2:46 04-We Don't Get Along
DR12 -0.54 dB -14.27 dB 2:40 05-I Think It's Me
DR12 -0.54 dB -14.32 dB 3:21 06-It's Everything But Partytime
DR11 -0.54 dB -12.95 dB 3:17 07-Get Up And Go
DR12 -0.54 dB -13.80 dB 3:05 08-This Old Feeling
DR12 -0.54 dB -14.25 dB 2:52 09-Cool Jerk
DR12 -0.54 dB -13.61 dB 2:56 10-The Way You Dance
DR12 -0.54 dB -13.72 dB 2:52 11-Beatnik Beach
DR12 -0.54 dB -15.02 dB 4:00 12-Worlds Away
––––––––––––––––––––––––––––––––––––––––

Number of tracks: 12
Official DR value: DR12

Samplerate: 96000 Hz
Channels: 2
Bits per sample: 24
Bitrate: 3035 kbps
Codec: FLAC
================================================================================



Thanks to the Original customer.