Subcategories

The Jackson 5 - Diana Ross Presents The Jackson 5 (1969/2015) [Official Digital Download 24/192]

Posted By: Pisulik
The Jackson 5 - Diana Ross Presents The Jackson 5 (1969/2015) [Official Digital Download 24/192]

The Jackson 5 - Diana Ross Presents The Jackson 5 (1969/2015)
FLAC (tracks) 24-bit/192 kHz | Time - 37:30 minutes | 1,60 GB
Studio Master, Official Digital Download | Artwork: Front cover

"Diana Ross Presents The Jackson 5" is the debut studio album from Gary, Indiana-based soul family band the Jackson 5, released on the Motown label in December 1969. Less than two weeks before the 1960s were left to be deciphered in the history books, Motown unleashed Diana Ross Presents the Jackson 5 (1969) and in doing so fittingly marked the beginning of a new era in crossover pop and soul. For all intents and purposes, this dozen-song disc introduced the world to the sibling talents of Jackie, Tito, Jermaine, Marlon, and most significantly of all, a prepubescent powerhouse named Michael Jackson. The brothers' inextricably tight vocal harmonies were fueled by the ebullience of youth and inexperience while the flames of their collective success were stoked with the funkified vibe of urban America. Immediately evident is the influence that Sly & the Family Stone (whose "Stand!" is an unmitigated zenith in the Jackson 5's care), James Brown, and even Funkadelic had on the J5. In fact, the quintet would actually cover George Clinton's "I Bet You" on their sophomore effort, ABC (1970). The burgeoning sounds coming out of Philly were having a similarly sizable impact, as evidenced by the addition of the Thom Bell/William Hart track "Can You Remember," which is one of the album's highlights. Another discernibly affective force was found closer to home, as they also drew on the considerable Motown back catalog with "My Cherie Amour," "Standing in the Shadows of Love," and a powerful reading of "(I Know) I'm Losing You." Under the moniker of "the Corporation," Motown staffers and artists including Bobby Taylor, instrumentalists Deke Richards (guitar), Freddie Perren (keyboard) , and Fonce Mizell (keyboards), and the label's co-founder, Berry Gordy, came up with a handful of dominant originals. Prominent among them are the midtempo "Nobody" and their double-sided chart-topping single "I Want You Back" b/w the Smokey Robinson-penned "Who's Lovin' You."

Tracklist:

01. Zip A Dee Doo Dah
02. Nobody
03. I Want You Back
04. Can You Remember
05. Standing In The Shadows Of Love
06. You've Changed
07. My Cherie Amour
08. Who's Lovin' You
09. Chained
10. (I Know) I'm Losing You
11. Stand!
12. Born To Love You

foobar2000 1.3.7 / Dynamic Range Meter 1.1.1
log date: 2017-10-19 01:54:19

––––––––––––––––––––––––––––––––––––––––
Analyzed: Jackson 5 / Diana Ross Presents The Jackson 5
––––––––––––––––––––––––––––––––––––––––

DR Peak RMS Duration Track
––––––––––––––––––––––––––––––––––––––––
DR10 -0.19 dB -12.05 dB 3:14 01-Zip A Dee Doo Dah
DR10 -0.19 dB -11.41 dB 2:51 02-Nobody
DR10 -0.19 dB -12.10 dB 3:01 03-I Want You Back
DR10 -0.19 dB -11.72 dB 3:08 04-Can You Remember
DR10 -0.19 dB -12.40 dB 4:03 05-Standing In The Shadows Of Love
DR10 -0.19 dB -10.98 dB 3:14 06-You've Changed
DR10 -0.19 dB -11.88 dB 3:43 07-My Cherie Amour
DR10 -0.19 dB -12.41 dB 4:05 08-Who's Lovin' You
DR9 -0.19 dB -10.51 dB 2:52 09-Chained
DR10 -0.19 dB -11.24 dB 2:16 10-(I Know) I'm Losing You
DR10 -0.19 dB -11.55 dB 2:36 11-Stand!
DR9 -0.19 dB -10.80 dB 2:27 12-Born To Love You
––––––––––––––––––––––––––––––––––––––––

Number of tracks: 12
Official DR value: DR10

Samplerate: 192000 Hz
Channels: 2
Bits per sample: 24
Bitrate: 6209 kbps
Codec: FLAC
================================================================================


All thanks go to the original releaser